Ссылка на приватное зеркало нашего сайта всего за 1$. Внимание количество ограничено!!!

2 сезон

iTunes

1 сезон

1

2 сезон

2 сезон

iTunes

1 сезон

RePack

30

Новинка

ВАЖНО

ИГРА 18+

pack

RePack

MK11
pack

Забери бонус

RePack

jed

!!Акция!!

Alien_Rage

RePack

fifa19

RePack

Assassins Creed: Odyssey

RePack

NEED FOR SPEED™ PAYBACK

4 сезон

9 сезон

Бесстыжие 9 сезон

Все сериалы

все сериалы на PB.wtf

RePack

FAR CRY 5
  

(Alternative Rock/Post-grunge) Breaking Benjamin - Дискография - 2001-2009, FLAC (tracks+.cue), lossless pb.wtf

через торрент pb.wtf

Размер: 1.74 GB | Добавлен: 9 лет назад | Торрент скачан:40 раз
Скачать  

05-01-2011 14:41 Скачать торрент  

Breaking Benjamin - Дискография


Страна: USA (Wilkes-Barre, Pennsylvania) ||| Жанр: Alternative Rock/Post-grunge ||| Год выпуска: 2001-2009 ||| Битрейт аудио: lossless ||| Формат: FLAC (tracks+.cue)
Студийные альбомы:

01. Wish I May (3:58)
02. Medicate (3:45)
03. Polyamorous (2:57)
04. Skin (3:20)
05. Natural Life (4:00)
06. Next To Nothing (3:43)
07. Water (4:12)
08. Home (3:37)
09. Phase (4:31)
10. No Games (3:35)
11. Sugarcoat (3:38)
12. Shallow Bay (4:05)
13. Forever (3:54)
EAC extraction logfile from 20. August 2006, 18:39 for CD
Breaking Benjamin / Saturate Album

Used drive : _NEC DVD_RW ND-3520A Adapter: 0 ID: 2
Read mode : Secure with NO C2, accurate stream, disable cache
Read offset correction : 48
Overread into Lead-In and Lead-Out : No

Used output format : C:\Program Files\FLAC\flac.exe (User Defined Encoder)
128 kBit/s
Additional command line options : -V -8 -T "artist=%a" -T "title=%t" -T "album=%g" -T "date=%y" -T "tracknumber=%n" -T "genre=%m" %s

Other options :
Fill up missing offset samples with silence : Yes
Delete leading and trailing silent blocks : No
Native Win32 interface for Win NT & 2000

Track 1
Filename C:\Documents and Settings\Sam\My Documents\Albums from EAC\01 - Wish I May.wav

Pre-gap length 0:00:02.00

Peak level 99.2 %
Track quality 100.0 %
Test CRC A65E5F30
Copy CRC A65E5F30
Copy OK

Track 2
Filename C:\Documents and Settings\Sam\My Documents\Albums from EAC\02 - Medicate.wav

Peak level 98.5 %
Track quality 100.0 %
Test CRC F35D9D4B
Copy CRC F35D9D4B
Copy OK

Track 3
Filename C:\Documents and Settings\Sam\My Documents\Albums from EAC\03 - Polyamorous.wav

Peak level 98.1 %
Track quality 99.9 %
Test CRC 4B6D252A
Copy CRC 4B6D252A
Copy OK

Track 4
Filename C:\Documents and Settings\Sam\My Documents\Albums from EAC\04 - Skin.wav

Peak level 99.8 %
Track quality 99.9 %
Test CRC AC2CA957
Copy CRC AC2CA957
Copy OK

Track 5
Filename C:\Documents and Settings\Sam\My Documents\Albums from EAC\05 - Natural Life.wav

Peak level 99.8 %
Track quality 100.0 %
Test CRC 69BC7376
Copy CRC 69BC7376
Copy OK

Track 6
Filename C:\Documents and Settings\Sam\My Documents\Albums from EAC\06 - Next To Nothing.wav

Peak level 99.8 %
Track quality 100.0 %
Test CRC 4EE10DB9
Copy CRC 4EE10DB9
Copy OK

Track 7
Filename C:\Documents and Settings\Sam\My Documents\Albums from EAC\07 - Water.wav

Peak level 99.8 %
Track quality 99.9 %
Test CRC 5357FD6F
Copy CRC 5357FD6F
Copy OK

Track 8
Filename C:\Documents and Settings\Sam\My Documents\Albums from EAC\08 - Home.wav

Peak level 99.3 %
Track quality 99.4 %
Test CRC 31BC5428
Copy CRC 31BC5428
Copy OK

Track 9
Filename C:\Documents and Settings\Sam\My Documents\Albums from EAC\09 - Phase.wav

Peak level 99.0 %
Track quality 100.0 %
Test CRC FFC46D12
Copy CRC FFC46D12
Copy OK

Track 10
Filename C:\Documents and Settings\Sam\My Documents\Albums from EAC\10 - No Games.wav

Peak level 99.8 %
Track quality 99.9 %
Test CRC 3B3BEC8B
Copy CRC 3B3BEC8B
Copy OK

Track 11
Filename C:\Documents and Settings\Sam\My Documents\Albums from EAC\11 - Sugarcoat.wav

Peak level 99.8 %
Track quality 100.0 %
Test CRC D86ACCDD
Copy CRC D86ACCDD
Copy OK

Track 12
Filename C:\Documents and Settings\Sam\My Documents\Albums from EAC\12 - Shallow Bay.wav

Peak level 99.8 %
Track quality 100.0 %
Test CRC D5080A63
Copy CRC D5080A63
Copy OK

Track 13
Filename C:\Documents and Settings\Sam\My Documents\Albums from EAC\13 - Forever (Hidden Bonus Track).wav

Peak level 99.8 %
Track quality 100.0 %
Test CRC 65F9AF65
Copy CRC 65F9AF65
Copy OK

No errors occured

End of status report

01. So Cold (4:33)
02. Simple Design (4:15)
03. Follow (3:18)
04. Firefly (3:07)
05. Break My Fall (3:25)
06. Forget It (3:37)
07. Sooner Or Later (3:39)
08. Breakdown (3:36)
09. Away (3:12)
10. Believe (3:20)
11. Rain (3:25)
12. Ordinary Man (3:30)
13. Ladybug (3:03)
EAC extraction logfile from 11. January 2007, 17:02 for CD
Breaking Benjamin / We Are Not Alone (Japanese Import)

Used drive : JLMS XJ-HD166S Adapter: 1 ID: 1
Read mode : Secure with NO C2, accurate stream, disable cache
Read offset correction : 12
Overread into Lead-In and Lead-Out : No

Used output format : C:\Program Files\FLAC\flac.exe (User Defined Encoder)
128 kBit/s
Additional command line options : -V -8 -T "artist=%a" -T "title=%t" -T "album=%g" -T "date=%y" -T "tracknumber=%n" -T "genre=%m" %s

Other options :
Fill up missing offset samples with silence : Yes
Delete leading and trailing silent blocks : No
Native Win32 interface for Win NT & 2000

Track 1
Filename E:\Torrent Downloads (In Progress)\Breaking Benjamin - 2004-09-15 -- We Are Not Alone (Japanese Import)\01 - So Cold.wav

Pre-gap length 0:00:02.00

Peak level 99.2 %
Track quality 100.0 %
Test CRC 851D9E75
Copy CRC 851D9E75
Copy OK

Track 2
Filename E:\Torrent Downloads (In Progress)\Breaking Benjamin - 2004-09-15 -- We Are Not Alone (Japanese Import)\02 - Simple Design.wav

Peak level 99.2 %
Track quality 100.0 %
Test CRC 089F232F
Copy CRC 089F232F
Copy OK

Track 3
Filename E:\Torrent Downloads (In Progress)\Breaking Benjamin - 2004-09-15 -- We Are Not Alone (Japanese Import)\03 - Follow.wav

Peak level 99.2 %
Track quality 99.9 %
Test CRC 90CAFF61
Copy CRC 90CAFF61
Copy OK

Track 4
Filename E:\Torrent Downloads (In Progress)\Breaking Benjamin - 2004-09-15 -- We Are Not Alone (Japanese Import)\04 - Firefly.wav

Peak level 99.2 %
Track quality 100.0 %
Test CRC D79F7983
Copy CRC D79F7983
Copy OK

Track 5
Filename E:\Torrent Downloads (In Progress)\Breaking Benjamin - 2004-09-15 -- We Are Not Alone (Japanese Import)\05 - Break My Fall.wav

Peak level 99.2 %
Track quality 100.0 %
Test CRC 73D6B485
Copy CRC 73D6B485
Copy OK

Track 6
Filename E:\Torrent Downloads (In Progress)\Breaking Benjamin - 2004-09-15 -- We Are Not Alone (Japanese Import)\06 - Forget It.wav

Peak level 99.2 %
Track quality 100.0 %
Test CRC 8F936487
Copy CRC 8F936487
Copy OK

Track 7
Filename E:\Torrent Downloads (In Progress)\Breaking Benjamin - 2004-09-15 -- We Are Not Alone (Japanese Import)\07 - Sooner Or Later.wav

Peak level 99.2 %
Track quality 99.9 %
Test CRC C57F2300
Copy CRC C57F2300
Copy OK

Track 8
Filename E:\Torrent Downloads (In Progress)\Breaking Benjamin - 2004-09-15 -- We Are Not Alone (Japanese Import)\08 - Breakdown.wav

Peak level 99.2 %
Track quality 100.0 %
Test CRC 32CCD621
Copy CRC 32CCD621
Copy OK

Track 9
Filename E:\Torrent Downloads (In Progress)\Breaking Benjamin - 2004-09-15 -- We Are Not Alone (Japanese Import)\09 - Away.wav

Peak level 99.2 %
Track quality 100.0 %
Test CRC 9AAAB475
Copy CRC 9AAAB475
Copy OK

Track 10
Filename E:\Torrent Downloads (In Progress)\Breaking Benjamin - 2004-09-15 -- We Are Not Alone (Japanese Import)\10 - Believe.wav

Peak level 99.2 %
Track quality 100.0 %
Test CRC 48E87515
Copy CRC 48E87515
Copy OK

Track 11
Filename E:\Torrent Downloads (In Progress)\Breaking Benjamin - 2004-09-15 -- We Are Not Alone (Japanese Import)\11 - Rain.wav

Pre-gap length 0:00:01.16

Peak level 99.2 %
Track quality 99.9 %
Test CRC EAB410DA
Copy CRC EAB410DA
Copy OK

Track 12
Filename E:\Torrent Downloads (In Progress)\Breaking Benjamin - 2004-09-15 -- We Are Not Alone (Japanese Import)\12 - Ordinary Man.wav

Peak level 99.2 %
Track quality 100.0 %
Test CRC 150B536E
Copy CRC 150B536E
Copy OK

Track 13
Filename E:\Torrent Downloads (In Progress)\Breaking Benjamin - 2004-09-15 -- We Are Not Alone (Japanese Import)\13 - Lady Bug.wav

Peak level 97.3 %
Track quality 100.0 %
Test CRC E7EC00A3
Copy CRC E7EC00A3
Copy OK

No errors occured

End of status report

01. Intro (1:13)
02. The Diary Of Jane (3:20)
03. Breath (3:38)
04. You (3:22)
05. Evil Angel (3:41)
06. Until The End (4:12)
07. Dance With The Devil (3:47)
08. Topless (3:03)
09. Here We Are (4:18)
10. Unknown Soldier (3:46)
11. Had Enough (3:50)
12. You Fight Me (3:12)
13. Outro (2:09)
14. The Diary Of Jane (Acoustic) (3:06)
15. So Cold (Acoustic) (3:56)
16. Rain (2005) (3:22)
Exact Audio Copy V0.99 prebeta 4 from 23. January 2008

EAC extraction logfile from 9. April 2008, 4:03

Breaking Benjamin / Phobia (Asian Edition)

Used drive : SONY DVD RW DW-Q30A Adapter: 2 ID: 0

Read mode : Secure
Utilize accurate stream : Yes
Defeat audio cache : Yes
Make use of C2 pointers : No

Read offset correction : 6
Overread into Lead-In and Lead-Out : No
Fill up missing offset samples with silence : Yes
Delete leading and trailing silent blocks : No
Null samples used in CRC calculations : Yes
Used interface : Native Win32 interface for Win NT & 2000
Gap handling : Appended to previous track

Used output format : User Defined Encoder
Selected bitrate : 128 kBit/s
Quality : High
Add ID3 tag : No
Command line compressor : C:\Program Files\FLAC\flac.exe
Additional command line options : -8 -V -T "ARTIST=%a" -T "TITLE=%t" -T "ALBUM=%g" -T "DATE=%y" -T "TRACKNUMBER=%n" -T "GENRE=%m" -T "COMMENT=EAC FLAC -8" %s

TOC of the extracted CD

Track | Start | Length | Start sector | End sector
---------------------------------------------------------
1 | 0:00.00 | 1:13.63 | 0 | 5537
2 | 1:13.63 | 3:20.41 | 5538 | 20578
3 | 4:34.29 | 3:38.35 | 20579 | 36963
4 | 8:12.64 | 3:21.72 | 36964 | 52110
5 | 11:34.61 | 3:41.18 | 52111 | 68703
6 | 15:16.04 | 4:12.60 | 68704 | 87663
7 | 19:28.64 | 3:47.08 | 87664 | 104696
8 | 23:15.72 | 3:03.14 | 104697 | 118435
9 | 26:19.11 | 4:18.44 | 118436 | 137829
10 | 30:37.55 | 3:46.27 | 137830 | 154806
11 | 34:24.07 | 3:49.73 | 154807 | 172054
12 | 38:14.05 | 3:12.48 | 172055 | 186502
13 | 41:26.53 | 2:09.66 | 186503 | 196243
14 | 43:36.44 | 3:08.07 | 196244 | 210350
15 | 46:44.51 | 3:56.39 | 210351 | 228089
16 | 50:41.15 | 3:22.10 | 228090 | 243249

Track 1

Filename Z:\temp\01 - Intro.wav

Pre-gap length 0:00:02.00

Peak level 96.6 %
Track quality 100.0 %
Test CRC CD1264A4
Copy CRC CD1264A4
Accurately ripped (confidence 1) [706ADA65]
Copy OK

Track 2

Filename Z:\temp\02 - The Diary of Jane.wav

Peak level 96.6 %
Track quality 99.9 %
Test CRC E1E187BB
Copy CRC E1E187BB
Accurately ripped (confidence 1) [BAB3E6FC]
Copy OK

Track 3

Filename Z:\temp\03 - Breath.wav

Peak level 96.6 %
Track quality 99.9 %
Test CRC 0A9A8331
Copy CRC 0A9A8331
Accurately ripped (confidence 1) [63381E7B]
Copy OK

Track 4

Filename Z:\temp\04 - You.wav

Peak level 96.6 %
Track quality 100.0 %
Test CRC C080F42C
Copy CRC C080F42C
Accurately ripped (confidence 1) [D6660A76]
Copy OK

Track 5

Filename Z:\temp\05 - Evil Angel.wav

Peak level 96.6 %
Track quality 100.0 %
Test CRC E3E5DF33
Copy CRC E3E5DF33
Accurately ripped (confidence 1) [F993ACFD]
Copy OK

Track 6

Filename Z:\temp\06 - Until the End.wav

Pre-gap length 0:00:01.24

Peak level 96.6 %
Track quality 100.0 %
Test CRC 3E4727D8
Copy CRC 3E4727D8
Accurately ripped (confidence 1) [68C17391]
Copy OK

Track 7

Filename Z:\temp\07 - Dance with the Devil.wav

Peak level 96.6 %
Track quality 99.9 %
Test CRC 9293FE7B
Copy CRC 9293FE7B
Accurately ripped (confidence 1) [2819F022]
Copy OK

Track 8

Filename Z:\temp\08 - Topless.wav

Peak level 96.6 %
Track quality 100.0 %
Test CRC 4A853972
Copy CRC 4A853972
Accurately ripped (confidence 1) [CAC99D66]
Copy OK

Track 9

Filename Z:\temp\09 - Here We Are.wav

Pre-gap length 0:00:01.94

Peak level 96.6 %
Track quality 100.0 %
Test CRC 3BE8A7FC
Copy CRC 3BE8A7FC
Accurately ripped (confidence 1) [82B2668B]
Copy OK

Track 10

Filename Z:\temp\10 - Unknown Soldier.wav

Peak level 96.6 %
Track quality 100.0 %
Test CRC 145DA4A8
Copy CRC 145DA4A8
Accurately ripped (confidence 1) [367752CE]
Copy OK

Track 11

Filename Z:\temp\11 - Had Enough.wav

Peak level 96.6 %
Track quality 100.0 %
Test CRC E3A1D0E6
Copy CRC E3A1D0E6
Accurately ripped (confidence 1) [670A528C]
Copy OK

Track 12

Filename Z:\temp\12 - You Fight Me.wav

Pre-gap length 0:00:01.76

Peak level 96.6 %
Track quality 100.0 %
Test CRC 0201F20E
Copy CRC 0201F20E
Accurately ripped (confidence 1) [D10E5D96]
Copy OK

Track 13

Filename Z:\temp\13 - Outro.wav

Pre-gap length 0:00:01.80

Peak level 96.6 %
Track quality 100.0 %
Test CRC 78EDCCB3
Copy CRC 78EDCCB3
Accurately ripped (confidence 1) [E2F8F266]
Copy OK

Track 14

Filename Z:\temp\14 - The Diary of Jane (Acoustic).wav

Peak level 96.6 %
Track quality 100.0 %
Test CRC AF7F5973
Copy CRC AF7F5973
Accurately ripped (confidence 1) [B87E3D5C]
Copy OK

Track 15

Filename Z:\temp\15 - So Cold (Acoustic).wav

Pre-gap length 0:00:02.00

Peak level 99.7 %
Track quality 100.0 %
Test CRC C62D871E
Copy CRC C62D871E
Accurately ripped (confidence 1) [9CA1E612]
Copy OK

Track 16

Filename Z:\temp\16 - Rain (2005).wav

Pre-gap length 0:00:01.66

Peak level 100.0 %
Track quality 100.0 %
Test CRC 42F2EC6A
Copy CRC 42F2EC6A
Accurately ripped (confidence 1) [E9641000]
Copy OK

All tracks accurately ripped

No errors occurred

End of status report

01. Fade Away (3:16)
02. I Will Not Bow (3:36)
03. Crawl (3:59)
04. Give Me a Sign (4:17)
05. Hopeless (3:20)
06. What Lies Beneath (3:34)
07. Anthem of the Angels (4:02)
08. Lights Out (3:33)
09. Dear Agony (4:18)
10. Into the Nothing (3:44)
11. Without You (4:16)
Exact Audio Copy V0.99 prebeta 5 from 4. May 2009

EAC extraction logfile from 25. September 2009, 12:46

Breaking Benjamin / Dear Agony

Used drive : SONY CD-RW CRX230EE Adapter: 0 ID: 1

Read mode : Secure
Utilize accurate stream : Yes
Defeat audio cache : Yes
Make use of C2 pointers : No

Read offset correction : 0
Overread into Lead-In and Lead-Out : No
Fill up missing offset samples with silence : Yes
Delete leading and trailing silent blocks : No
Null samples used in CRC calculations : Yes
Used interface : Native Win32 interface for Win NT & 2000
Gap handling : Appended to previous track

Used output format : User Defined Encoder
Selected bitrate : 128 kBit/s
Quality : High
Add ID3 tag : Yes
Command line compressor : C:\Program Files\Exact Audio Copy\Flac\flac.exe
Additional command line options : -6 -V -T "artist=%a" -T "title=%t" -T "album=%g" -T "date=%y" -T "tracknumber=%n" -T "genre=%m" -T comment="%e" -T "comment=EAC (Secure Mode)" %s

TOC of the extracted CD

Track | Start | Length | Start sector | End sector
---------------------------------------------------------
1 | 0:00.00 | 3:16.02 | 0 | 14701
2 | 3:16.02 | 3:36.55 | 14702 | 30956
3 | 6:52.57 | 3:58.68 | 30957 | 48874
4 | 10:51.50 | 4:17.52 | 48875 | 68201
5 | 15:09.27 | 3:20.01 | 68202 | 83202
6 | 18:29.28 | 3:34.59 | 83203 | 99311
7 | 22:04.12 | 4:02.54 | 99312 | 117515
8 | 26:06.66 | 3:33.48 | 117516 | 133538
9 | 29:40.39 | 4:18.19 | 133539 | 152907
10 | 33:58.58 | 3:43.70 | 152908 | 169702
11 | 37:42.53 | 4:16.56 | 169703 | 188958
12 | 44:31.34 | 1:35.71 | 200359 | 207554

Track 1

Filename E:\Flac\Breaking Benjamin - Dear Agony\01 - Fade Away.wav

Pre-gap length 0:00:02.00

Peak level 100.0 %
Track quality 100.0 %
Test CRC 88C8513A
Copy CRC 88C8513A
Copy OK

Track 2

Filename E:\Flac\Breaking Benjamin - Dear Agony\02 - I Will Not Bow.wav

Peak level 100.0 %
Track quality 100.0 %
Test CRC 0A7D9D45
Copy CRC 0A7D9D45
Copy OK

Track 3

Filename E:\Flac\Breaking Benjamin - Dear Agony\03 - Crawl.wav

Peak level 100.0 %
Track quality 100.0 %
Test CRC 56F50DFB
Copy CRC 56F50DFB
Copy OK

Track 4

Filename E:\Flac\Breaking Benjamin - Dear Agony\04 - Give Me A Sign.wav

Peak level 100.0 %
Track quality 99.9 %
Test CRC 248BED66
Copy CRC 248BED66
Copy OK

Track 5

Filename E:\Flac\Breaking Benjamin - Dear Agony\05 - Hopeless.wav

Peak level 100.0 %
Track quality 100.0 %
Test CRC 51353FB0
Copy CRC 51353FB0
Copy OK

Track 6

Filename E:\Flac\Breaking Benjamin - Dear Agony\06 - What Lies Beneath.wav

Peak level 100.0 %
Track quality 100.0 %
Test CRC B8731805
Copy CRC B8731805
Copy OK

Track 7

Filename E:\Flac\Breaking Benjamin - Dear Agony\07 - Anthem of The Angels.wav

Peak level 100.0 %
Track quality 100.0 %
Test CRC E7046B77
Copy CRC E7046B77
Copy OK

Track 8

Filename E:\Flac\Breaking Benjamin - Dear Agony\08 - Lights Out.wav

Peak level 100.0 %
Track quality 100.0 %
Test CRC 02DAC294
Copy CRC 02DAC294
Copy OK

Track 9

Filename E:\Flac\Breaking Benjamin - Dear Agony\09 - Dear Agony.wav

Peak level 100.0 %
Track quality 100.0 %
Test CRC DCA5F672
Copy CRC DCA5F672
Copy OK

Track 10

Filename E:\Flac\Breaking Benjamin - Dear Agony\10 - Into The Nothing.wav

Peak level 100.0 %
Track quality 100.0 %
Test CRC AB6F197C
Copy CRC AB6F197C
Copy OK

Track 11

Filename E:\Flac\Breaking Benjamin - Dear Agony\11 - Without You.wav

Peak level 100.0 %
Track quality 100.0 %
Test CRC 0353B4B0
Copy CRC 0353B4B0
Copy OK

No errors occurred

End of status report
Мини-альбомы:

01. Home (3:37)
02. Medicate (2:57)
03. Polyamorous (2:59)
04. Water (4:01)
05. Shallow Bay (4:03)
EAC extraction logfile from 15. April 2008, 18:38 for CD
Breaking Benjamin / Breaking Benjamin [EP]

Used drive : PHILIPS CDRW/DVD SCB5265 Adapter: 0 ID: 0
Read mode : Secure with NO C2, accurate stream, disable cache
Read offset correction : 6
Overread into Lead-In and Lead-Out : No

Used output format : C:\Program Files\Exact Audio Copy\FLAC\flac.exe (User Defined Encoder)
128 kBit/s
Additional command line options : -8 -A tukey(0.25) -A gauss(0.1875) -b 4096 -V -T "artist=%a" -T "title=%t" -T "album=%g" -T "date=%y" -T "tracknumber=%n" -T "genre=%m" %s --sector-align

Other options :
Fill up missing offset samples with silence : Yes
Delete leading and trailing silent blocks : No
Installed external ASPI interface

Track 1
Filename C:\Documents and Settings\Owner\Desktop\Rips\Breaking Benjamin - Breaking Benjamin [EP]\01 - Home - Breaking Benjamin.wav

Pre-gap length 0:00:02.00

Peak level 96.8 %
Track quality 100.0 %
Test CRC 1BE43E08
Copy CRC 1BE43E08
Copy OK

Track 2
Filename C:\Documents and Settings\Owner\Desktop\Rips\Breaking Benjamin - Breaking Benjamin [EP]\02 - Medicate - Breaking Benjamin.wav

Peak level 100.0 %
Track quality 100.0 %
Test CRC 4A62AC39
Copy CRC 4A62AC39
Copy OK

Track 3
Filename C:\Documents and Settings\Owner\Desktop\Rips\Breaking Benjamin - Breaking Benjamin [EP]\03 - Polyamorous - Breaking Benjamin.wav

Peak level 100.0 %
Track quality 100.0 %
Test CRC B93E9716
Copy CRC B93E9716
Copy OK

Track 4
Filename C:\Documents and Settings\Owner\Desktop\Rips\Breaking Benjamin - Breaking Benjamin [EP]\04 - Water - Breaking Benjamin.wav

Pre-gap length 0:00:00.61

Peak level 100.0 %
Track quality 99.9 %
Test CRC 4C53A2E1
Copy CRC 4C53A2E1
Copy OK

Track 5
Filename C:\Documents and Settings\Owner\Desktop\Rips\Breaking Benjamin - Breaking Benjamin [EP]\05 - Shallow Bay - Breaking Benjamin.wav

Pre-gap length 0:00:00.42

Peak level 99.9 %
Track quality 100.0 %
Test CRC 6625FDE9
Copy CRC 6625FDE9
Copy OK

No errors occured

End of status report

01. Medicate (4:17)
02. Water (4:56)
03. Next To Nothing (4:18)
04. Sugarcoat (4:06)
EAC extraction logfile from 16. April 2008, 0:07 for CD
Breaking Benjamin / Live EP

Used drive : PHILIPS CDRW/DVD SCB5265 Adapter: 0 ID: 0
Read mode : Secure with NO C2, accurate stream, disable cache
Read offset correction : 6
Overread into Lead-In and Lead-Out : No

Used output format : C:\Program Files\Exact Audio Copy\FLAC\flac.exe (User Defined Encoder)
128 kBit/s
Additional command line options : -8 -A tukey(0.25) -A gauss(0.1875) -b 4096 -V -T "artist=%a" -T "title=%t" -T "album=%g" -T "date=%y" -T "tracknumber=%n" -T "genre=%m" %s --sector-align

Other options :
Fill up missing offset samples with silence : Yes
Delete leading and trailing silent blocks : No
Installed external ASPI interface

Track 1
Filename C:\Documents and Settings\Owner\Desktop\Rips\FLAC\Breaking Benjamin - Live [EP] - 2004\01 - Medicate - Breaking Benjamin.wav

Pre-gap length 0:00:02.00

Peak level 96.6 %
Track quality 99.9 %
Test CRC DC984EF9
Copy CRC DC984EF9
Copy OK

Track 2
Filename C:\Documents and Settings\Owner\Desktop\Rips\FLAC\Breaking Benjamin - Live [EP] - 2004\02 - Water - Breaking Benjamin.wav

Peak level 96.6 %
Track quality 99.9 %
Test CRC EFD580EF
Copy CRC EFD580EF
Copy OK

Track 3
Filename C:\Documents and Settings\Owner\Desktop\Rips\FLAC\Breaking Benjamin - Live [EP] - 2004\03 - Next To Nothing - Breaking Benjamin.wav

Peak level 96.6 %
Track quality 100.0 %
Test CRC D6B6304D
Copy CRC D6B6304D
Copy OK

Track 4
Filename C:\Documents and Settings\Owner\Desktop\Rips\FLAC\Breaking Benjamin - Live [EP] - 2004\04 - Sugarcoat - Breaking Benjamin.wav

Peak level 96.6 %
Track quality 100.0 %
Test CRC 6523DAE4
Copy CRC 6523DAE4
Copy OK

No errors occured

End of status report

01. So Cold (Live Acoustic) (3:55)
02. Blow Me Away (3:25)
03. Ladybug (3:02)
04. Away (Live) (3:24)
05. Breakdown (Live) (3:44)
EAC extraction logfile from 15. April 2008, 19:10 for CD
Breaking Benjamin / So Cold EP

Used drive : PHILIPS CDRW/DVD SCB5265 Adapter: 0 ID: 0
Read mode : Secure with NO C2, accurate stream, disable cache
Read offset correction : 6
Overread into Lead-In and Lead-Out : No

Used output format : C:\Program Files\Exact Audio Copy\FLAC\flac.exe (User Defined Encoder)
128 kBit/s
Additional command line options : -8 -A tukey(0.25) -A gauss(0.1875) -b 4096 -V -T "artist=%a" -T "title=%t" -T "album=%g" -T "date=%y" -T "tracknumber=%n" -T "genre=%m" %s --sector-align

Other options :
Fill up missing offset samples with silence : Yes
Delete leading and trailing silent blocks : No
Installed external ASPI interface

Track 1
Filename C:\Documents and Settings\Owner\Desktop\Rips\Breaking Benjamin - So Cold [EP]\01 - So Cold (Acoustic) - Breaking Benjamin.wav

Pre-gap length 0:00:02.00

Peak level 100.0 %
Track quality 100.0 %
Test CRC E9138AD1
Copy CRC E9138AD1
Copy OK

Track 2
Filename C:\Documents and Settings\Owner\Desktop\Rips\Breaking Benjamin - So Cold [EP]\02 - Blow Me Away - Breaking Benjamin.wav

Peak level 100.0 %
Track quality 100.0 %
Test CRC DF462FEB
Copy CRC DF462FEB
Copy OK

Track 3
Filename C:\Documents and Settings\Owner\Desktop\Rips\Breaking Benjamin - So Cold [EP]\03 - Lady Bug - Breaking Benjamin.wav

Peak level 100.0 %
Track quality 100.0 %
Test CRC 349A6D7E
Copy CRC 349A6D7E
Copy OK

Track 4
Filename C:\Documents and Settings\Owner\Desktop\Rips\Breaking Benjamin - So Cold [EP]\04 - Away (Live at Crocodile Rock in Allentown, PA) - Breaking Benjamin.wav

Peak level 100.0 %
Track quality 100.0 %
Test CRC 65CCA426
Copy CRC 65CCA426
Copy OK

Track 5
Filename C:\Documents and Settings\Owner\Desktop\Rips\Breaking Benjamin - So Cold [EP]\05 - Breakdown (Live at Crocodile Rock in Allentown, PA) - Breaking Benjamin.wav

Pre-gap length 0:00:01.48

Peak level 100.0 %
Track quality 100.0 %
Test CRC 8C87FBE1
Copy CRC 8C87FBE1
Copy OK

No errors occured

End of status report
pb.wtf



Скачать через торрент http://s013.radikal.ru/i325/1101/42/e00034d335a9.jpg Скачать фильм через торрент бесплантно в хорошем качестве Год выпуска: 2001-2009 ||| Битрейт аудио: lossless ||| Формат: FLAC (tracks+.cue)Студийные ... 10 10 3
Info! Золотая раздача, скачанное не засчитывается.
Торрент: Зарегистрирован [2011-01-05 14:41] · скачан: 40 раз
Статус: √ проверено
Размер: 1.74 GB
Как cкачать? Как скачать через торрент | qTorrent

% Раздел Тема Автор DL S | L
Classic Rock & Hard Rock (lossless) [ 2.68 GB ] EVANESCENCE Дискография - 1998-2007 FLAC lossless ser_1985 Скачать
1 | 0
Eurodance, Technopop, Disco (lossless) [ 1.86 GB ] Dr. Alban Студийные альбомы - 5CD [FLAC lossless] tauras Скачать
1 | 0
Action FPS (1st Person) [ 8.89 GB ] Star Wars: The Force Unleashed - Ultimate Sith Edition [Lossless Repack RU/EN] от Druid =Чувак= Скачать
1 | 0
Гоночные симуляторы [ 3.18 GB ] Дальнобойщик​и 3: Золотое Издание [Lossless Repack RU] от R.G. Catalyst roman3310i Скачать
1 | 0
Архив (Многоканальная музыка и собственные оцифровки) [ 405 MB ] Black Sabbath -Heaven & hell - 1980 DTS lossless staryirocker Скачать
1 | 0
RTS (стратегии в реальном времени) [ 4.21 GB ] Command & Conquer 4: Tiberian Twilight [Lossless RePackRUEA] Alex_Zeyn Скачать
1 | 0
Рок, Панк, Альтернатива (lossless) [ 6.72 GB ] Пикник - Дискография FLAC lossless Wortex Скачать
1 | 0

28-11-2019 20:33  

Отключить всю рекламу на сайте

10-07-2012 18:15 Скачать торрент  

Я очень заинтересован в этом CD ----> "2004 - We Are Not Alone (японский импорт)".

Это почти невозможно найти в Интернете в формате FLAC --- это один из немногих сайтов, которые до сих пор поток для него доступны.

Спасибо.pb.wtf



13-09-2015 12:09 Скачать торрент  

Ребят!!Дайте раздачу пожалуйста.. видел так пишут , не знаю правда это помогает, нет! Хочу закинуть альбомчик на Яблоко побыстрее и в путь.pb.wtf



    Дорогой пользователь! Огромная просьба, поблагодарите релизера, оцените раздачу и оставьте свои комментарий, если Вы скачали через торрент бесплатно! Внесите свою лепту в развитие PiratBit!
    Комментировать посты могут только пользователи прошедшие не сложную регистрацию
    Показать сообщения:    

    через торрент
    Скачать бесплатно
    скачать торрент
    смотреть онлайн
    Cкачать фильм бесплатно
    скачать торрент в хорошем качестве
    смотреть онлайн бесплатно в хорошем качестве


    Вы не можете начинать темы
    Вы не можете отвечать на сообщения
    Вы не можете редактировать свои сообщения
    Вы не можете удалять свои сообщения
    Вы не можете голосовать в опросах
    Вы не можете прикреплять файлы к сообщениям
    Вы можете скачивать файлы