Ссылка на приватное зеркало нашего сайта всего за 1$. Внимание количество ограничено!!!

2 сезон

iTunes

1 сезон

1

2 сезон

2 сезон

iTunes

1 сезон

RePack

30

Ultimate

ВАЖНО

ИГРА 18+

pack

RePack

MK11
pack

Забери бонус

RePack

jed

!!Акция!!

Alien_Rage

RePack

fifa19

RePack

Assassins Creed: Odyssey

RePack

NEED FOR SPEED™ PAYBACK

4 сезон

9 сезон

Бесстыжие 9 сезон

Все сериалы

все сериалы на PB.wtf

RePack

FAR CRY 5
  

Ио / IO (Джонатан Элпер) [2019, фантастика, драма, мелодрама, приключения, WEBRip 1080p] MVO [HDRezka Studio] pb.wtf

Ио через торрент pb.wtf

Размер: 4.98 GB | Добавлен: 1 год 9 мес. назад | Торрент скачан:378 раз
Скачать  

24-02-2019 04:26 Ио Скачать торрент  

Ио / IO Год выпуска: 2019
Страна: США
Жанр: фантастика, драма, мелодрама, приключения
Продолжительность: 01:36:02
Перевод: Любительский (многоголосый) | HDRezka Studio
Субтитры: Русские (полные), Английские (полные)

Режиссер: Джонатан Элпер

rating

В ролях:

Маргарет Куэлли, Энтони Маки, Дэнни Хьюстон

Описание:

Земля стала необитаемой и всё человечество переселилось на спутник Юпитера - Ио. На родной планете почти никого не осталось, кроме одинокой Сэм, которая надеется найти способ спасти Землю. Но появление ещё одного выжившего заставляет её пересмотреть свои планы.

Качество: WEBRip 1080p
Формат: MKV

Видео: 1920x1080 (16:9), 24,000 fps, x264 ~6 841 kbps avg, 0.137 bit/pixel
Аудио#1: 48 kHz, AC3 Dolby Digital, 2 (L,R) ch, ~192.00 kbps avg | RUS (HDRezka Studio)
Аудио#2: 48 kHz, AC3 Dolby Digital, 3/2 (L,C,R,l,r) + LFE ch, ~384.00 kbps avg | ENG
скриншот  скриншот  скриншот  скриншот  скриншот  

Общее
Уникальный идентификатор : 13712591503323393168110887346633309780 (0xA50F2F58A307CAB64C3AD04A269FE54)
Полное имя : F:OlLanDGroupIO.2019..NF.WEBRip(1080p).OlLanDGroup.mkv
Формат : Matroska
Версия формата : Version 4 / Version 2
Размер файла : 4,98 Гбайт
Продолжительность : 1 ч. 36 м.
Режим общего битрейта : Переменный
Общий поток : 7417 Кбит/сек
Название фильма : IO.2019 #TorpedoUK#
Дата кодирования : UTC 2019-02-24 01:48:11
Программа кодирования : mkvmerge v29.0.0 ('Like It Or Not') 64-bit
Библиотека кодирования : libebml v1.3.6 + libmatroska v1.4.9

Видео
Идентификатор : 1
Формат : AVC
Формат/Информация : Advanced Video Codec
Профиль формата : High@L4
Параметр CABAC формата : Да
Параметр ReFrames формата : 4 кадра
Идентификатор кодека : V_MPEG4/ISO/AVC
Продолжительность : 1 ч. 36 м.
Вид битрейта : Переменный
Битрейт : 6841 Кбит/сек
Максимальный битрейт : 20,0 Мбит/сек
Ширина : 1920 пикселей
Высота : 1080 пикселей
Соотношение сторон : 16:9
Режим частоты кадров : Постоянный
Частота кадров : 24,000 кадра/сек
Цветовое пространство : YUV
Субдискретизация насыщенности : 4:2:0
Битовая глубина : 8 бит
Тип развёртки : Прогрессивная
Бит/(Пиксели*Кадры) : 0.137
Размер потока : 4,59 Гбайт (92%)
Библиотека кодирования : x264 core 148 r2715 7e75228
Настройки программы : cabac=1 / ref=4 / deblock=1:0:0 / analyse=0x3:0x111 / me=umh / subme=10 / psy=1 / psy_rd=1.00:0.00 / mixed_ref=1 / me_range=120 / chroma_me=1 / trellis=2 / 8x8dct=1 / cqm=0 / deadzone=21,11 / fast_pskip=1 / chroma_qp_offset=-2 / threads=8 / lookahead_threads=2 / sliced_threads=0 / nr=0 / decimate=1 / interlaced=0 / bluray_compat=0 / stitchable=1 / constrained_intra=0 / bframes=16 / b_pyramid=2 / b_adapt=2 / b_bias=0 / direct=3 / weightb=1 / open_gop=0 / weightp=2 / keyint=240 / keyint_min=121 / scenecut=0 / intra_refresh=0 / rc_lookahead=240 / rc=crf / mbtree=1 / crf=16.0 / qcomp=0.50 / qpmin=6 / qpmax=51 / qpstep=4 / vbv_maxrate=20000 / vbv_bufsize=25000 / crf_max=0.0 / nal_hrd=vbr / filler=0 / ip_ratio=1.40 / aq=1:0.80
Язык : English
Default : Да
Forced : Нет

Аудио #1
Идентификатор : 2
Формат : AC-3
Формат/Информация : Audio Coding 3
Расширение режима : CM (complete main)
Параметр Endianness формата : Big
Идентификатор кодека : A_AC3
Продолжительность : 1 ч. 36 м.
Вид битрейта : Постоянный
Битрейт : 192 Кбит/сек
Каналы : 2 канала
Расположение каналов : Front: L R
Частота : 48,0 КГц
Частота кадров : 31,250 кадров/сек (1536 spf)
Битовая глубина : 16 бит
Метод сжатия : С потерями
Размер потока : 132 Мбайт (3%)
Заголовок : MVO [HDRezka Studio]
Язык : Russian
Default : Да
Forced : Нет

Аудио #2
Идентификатор : 3
Формат : AC-3
Формат/Информация : Audio Coding 3
Расширение режима : CM (complete main)
Параметр Endianness формата : Big
Идентификатор кодека : A_AC3
Продолжительность : 1 ч. 36 м.
Вид битрейта : Постоянный
Битрейт : 384 Кбит/сек
Каналы : 6 каналов
Расположение каналов : Front: L C R, Side: L R, LFE
Частота : 48,0 КГц
Частота кадров : 31,250 кадров/сек (1536 spf)
Битовая глубина : 16 бит
Метод сжатия : С потерями
Размер потока : 264 Мбайт (5%)
Заголовок : [Original]
Язык : English
Default : Нет
Forced : Нет

Текст #1
Идентификатор : 4
Формат : UTF-8
Идентификатор кодека : S_TEXT/UTF8
Идентификатор кодека/Информация : UTF-8 Plain Text
Продолжительность : 1 ч. 34 м.
Битрейт : 48 бит/сек
Count of elements : 716
Размер потока : 34,0 Кбайт (0%)
Заголовок : Full
Язык : Russian
Default : Нет
Forced : Нет

Текст #2
Идентификатор : 5
Формат : UTF-8
Идентификатор кодека : S_TEXT/UTF8
Идентификатор кодека/Информация : UTF-8 Plain Text
Продолжительность : 1 ч. 28 м.
Битрейт : 34 бит/сек
Count of elements : 759
Размер потока : 22,3 Кбайт (0%)
Заголовок : Full
Язык : English
Default : Нет
Forced : Нет

pb.wtf



Скачать Ио через торрент https://c.radikal.ru/c35/1901/14/67242cbcb441.jpg Скачать фильм Ио через торрент бесплантно в хорошем качестве Описание: Земля стала необитаемой и всё человечество переселилось на спутник Юпитера - Ио. На родной планете почти никого не осталось, ... 9.5 10 12
Info! Золотая раздача, скачанное не засчитывается.
Торрент: Зарегистрирован [2019-02-24 04:26] · скачан: 378 раз
Статус: √ проверено
Размер: 4.98 GB
Как cкачать? Как скачать Ио через торрент | qTorrent

% Раздел Тема Автор DL S | L
Фильмы 2001-2005 [ 1.75 GB ] Страсти Христовы / The Passion of the Christ [2004 Религиозный исторический DVDRip] Дмитрий2009495 Скачать
1 | 0
Action TPS (3rd Person) [ 4.02 GB ] Смерть Шпионам: Момент Истины+OST [лицензияRUSteals Action ] kik_aka_bes Скачать
1 | 0
Порно фильмы с сюжетом [ 1.36 GB ] Астерикс и Обеликс: порноверсия / Astersex [2000 Feature Anal oral group DVDRip] Jeka21 Скачать
1 | 0
Спортивные симуляторы [ 10.1 GB ] Tony Hawk's Коллекционное издание [лицензия RU/EN Activision] GnomikX Скачать
1 | 0
Мультсериалы [ 500 MB ] Уоллес и Громит - Хитроумные приспособления / Wallace & Gromit - Cracking Contraptions [2002 мультфильм пластилиновая анимация ] андря Скачать
1 | 0
Фильмы (DVD фильмы) [ 4.33 GB ] Хроники Нарнии: Лев колдунья и волшебный шкаф / Chronicles of Narnia: The Lion the Witch and the Wardrobe The [2005 ... DVD5] amv77 Скачать
1 | 0
Бокс [ 940 MB ] Мэнни Пакьяо - Антонио Маргарито/Manny Pacquiao - Antonio Margarito[2010 БОКС SATRip] Чупачупсик Скачать
1 | 0

28-11-2019 20:33  

Отключить всю рекламу на сайте

24-02-2019 22:42 Ио Скачать торрент  

Народ вроде качает, а сказать о фильме нечего.pb.wtf



    Дорогой пользователь! Огромная просьба, поблагодарите релизера, оцените раздачу и оставьте свои комментарий, если Вы скачали Ио через торрент бесплатно! Внесите свою лепту в развитие PiratBit!
    Комментировать посты могут только пользователи прошедшие не сложную регистрацию
    Показать сообщения:    

    Ио через торрент
    Скачать бесплатно Ио
    Ио скачать торрент
    Ио смотреть онлайн
    Cкачать фильм Ио бесплатно
    Ио скачать торрент в хорошем качестве
    Ио смотреть онлайн бесплатно в хорошем качестве


    Вы не можете начинать темы
    Вы не можете отвечать на сообщения
    Вы не можете редактировать свои сообщения
    Вы не можете удалять свои сообщения
    Вы не можете голосовать в опросах
    Вы не можете прикреплять файлы к сообщениям
    Вы можете скачивать файлы