Ссылка на приватное зеркало всего за 1$. Внимание количество ограничено!!!

OK

1+1

iTunes

мы

OK

1

WEB-DLRip

Джокер

Пифагор

Ведьмак / The Witcher сериал

Лицензия

ПШазам

ОК

Оно 2

iTunes

30
pack

Вам бонус

ВАЖНО

!!Акция!!

Alien_RageХит недели

RePack

Resident Evil 21

ИГРА 18+

pack

RePack

jed

!!Акция!!

Alien_Rage

RePack

fifa19

RePack

Assassins Creed: Odyssey

RePack

NEED FOR SPEED™ PAYBACK

4 сезон

9 сезон

Бесстыжие 9 сезон

Все сериалы

все сериалы на PB.wtf

RePack

FAR CRY 5
  

Аксель / A.X.L. (Оливер Дэйли) [2018, фантастика, приключения, семейный, BDRip-HEVC 1080p, (10 bit)] DUB [iTunes] pb.wtf

Аксель через торрент pb.wtf

Размер: 5.73 GB | Добавлен: 10 мес. назад | Торрент скачан:224 раза
Скачать  

24-02-2019 05:11 Аксель Скачать торрент  

Аксель / A.X.L.
Год выпуска: 2018
Страна: США
Жанр: фантастика, приключения, семейный
Продолжительность: 01:38:57
Перевод: Дублированный | iTunes
Субтитры: Отсутствуют

Режиссер: Оливер Дэйли

rating

В ролях:

Томас Джейн, Бекки Джи, Тед МакГинли, Алекс Нюстадтер, Амин Наземзадех, Эрик Этебари, Алекс МакНиколл, Хасси Харрисон, Дориан Кинги, Патрисия де Леон

Описание:

Юный мотоциклист Майлз случайно находит новую военную разработку - гигантскую собаку-робота по имени Аксель. Обладая искусственным интеллектом следующего поколения, но с огромным сердцем верного пса, Аксель быстро становится лучшим другом парня. Но военные не намерены просто так отказаться от металлического зверя, который превзошел в развитии их самые смелые ожидания. История настоящей дружбы и преданности вышла на новый технологический уровень, но вечные законы жизни остались прежними: ты всегда в ответе за тех, кого приручил.

Качество: BDRip-HEVC 1080p
Формат: MKV

Видео: HEVC/H.265, 1920x800, ~7490 Kbps, 10 bit
Аудио#1: AC3, 6 ch, 384 Kbps | Русский (Дублированный) [iTunes]
Аудио#2: AC3, 6 ch, 448 Kbps | Английский (Оригинал)
скриншот  скриншот  скриншот  скриншот  скриншот  

Общее
Уникальный идентификатор : 197021726859762223668458914800848117002 (0x9439011CC7E16BFE8E3E5DDD5F089D0A)
Полное имя : Аксель (2018) BDRip 1080p [HEVC] 10 bit.mkv
Формат : Matroska
Версия формата : Version 4 / Version 2
Размер файла : 5,73 Гбайт
Продолжительность : 1 ч. 38 м.
Общий поток : 8324 Кбит/сек
Название фильма : Rip_by_M@kSIMus
Дата кодирования : UTC 2019-01-02 08:37:48
Программа кодирования : mkvmerge v29.0.0 ('Like It Or Not') 64-bit
Библиотека кодирования : libebml v1.3.6 + libmatroska v1.4.9
Обложка : Yes
Attachments : cover.jpg

Видео
Идентификатор : 1
Формат : HEVC
Формат/Информация : High Efficiency Video Coding
Профиль формата : Main 10@L4.1@High
Идентификатор кодека : V_MPEGH/ISO/HEVC
Продолжительность : 1 ч. 38 м.
Битрейт : 7490 Кбит/сек
Ширина : 1920 пикселей
Высота : 800 пикселей
Соотношение сторон : 2,40:1
Режим частоты кадров : Постоянный
Частота кадров : 23,976 (24000/1001) кадра/сек
Цветовое пространство : YUV
Субдискретизация насыщенности : 4:2:0
Битовая глубина : 10 бит
Бит/(Пиксели*Кадры) : 0.203
Размер потока : 5,16 Гбайт (90%)
Библиотека кодирования : x265 2.9+9-f74003e88622:[Windows][GCC 7.3.0][64 bit] 10bit
Настройки программы : cpuid=1049583 / frame-threads=5 / numa-pools=4 / wpp / no-pmode / no-pme / no-psnr / no-ssim / log-level=3 / input-csp=1 / input-res=1920x800 / interlace=0 / total-frames=0 / level-idc=41 / high-tier=1 / uhd-bd=0 / ref=5 / allow-non-conformance / no-repeat-headers / annexb / no-aud / no-hrd / info / hash=0 / no-temporal-layers / open-gop / min-keyint=24 / keyint=240 / gop-lookahead=0 / bframes=8 / b-adapt=2 / b-pyramid / bframe-bias=0 / rc-lookahead=40 / lookahead-slices=5 / scenecut=40 / radl=0 / no-intra-refresh / ctu=64 / min-cu-size=8 / no-rect / no-amp / max-tu-size=32 / tu-inter-depth=1 / tu-intra-depth=1 / limit-tu=0 / rdoq-level=0 / dynamic-rd=0.00 / no-ssim-rd / signhide / no-tskip / nr-intra=0 / nr-inter=0 / no-constrained-intra / strong-intra-smoothing / max-merge=2 / limit-refs=3 / no-limit-modes / me=3 / subme=7 / merange=57 / temporal-mvp / weightp / no-weightb / no-analyze-src-pics / deblock=-3:-3 / no-sao / no-sao-non-deblock / rd=3 / no-early-skip / rskip / no-fast-intra / no-tskip-fast / no-cu-lossless / no-b-intra / no-splitrd-skip / rdpenalty=0 / psy-rd=2.00 / psy-rdoq=0.00 / no-rd-refine / no-lossless / cbqpoffs=0 / crqpoffs=0 / rc=crf / crf=16.0 / qcomp=0.70 / qpstep=4 / stats-write=0 / stats-read=0 / vbv-maxrate=50000 / vbv-bufsize=50000 / vbv-init=0.9 / crf-max=0.0 / crf-min=0.0 / ipratio=1.40 / pbratio=1.30 / aq-mode=1 / aq-strength=1.00 / cutree / zone-count=0 / no-strict-cbr / qg-size=32 / no-rc-grain / qpmax=69 / qpmin=0 / no-const-vbv / sar=1 / overscan=0 / videoformat=5 / range=0 / colorprim=1 / transfer=1 / colormatrix=1 / chromaloc=0 / display-window=0 / max-cll=0,0 / min-luma=0 / max-luma=1023 / log2-max-poc-lsb=8 / vui-timing-info / vui-hrd-info / slices=1 / no-opt-qp-pps / no-opt-ref-list-length-pps / no-multi-pass-opt-rps / scenecut-bias=0.05 / no-opt-cu-delta-qp / no-aq-motion / no-hdr / no-hdr-opt / no-dhdr10-opt / no-idr-recovery-sei / analysis-reuse-level=5 / scale-factor=0 / refine-intra=0 / refine-inter=0 / refine-mv=0 / no-limit-sao / ctu-info=0 / no-lowpass-dct / refine-mv-type=0 / copy-pic=1 / max-ausize-factor=1.0 / no-dynamic-refine / no-single-sei
Язык : English
Default : Да
Forced : Нет
Цветовой диапазон : Limited
Основные цвета : BT.709
Характеристики трансфера : BT.709
Коэффициенты матрицы : BT.709

Аудио #1
Идентификатор : 2
Формат : AC-3
Формат/Информация : Audio Coding 3
Идентификатор кодека : A_AC3
Продолжительность : 1 ч. 38 м.
Вид битрейта : Постоянный
Битрейт : 384 Кбит/сек
Каналы : 6 каналов
Расположение каналов : Front: L C R, Side: L R, LFE
Частота : 48,0 КГц
Частота кадров : 31,250 кадров/сек (1536 SPF)
Битовая глубина : 16 бит
Метод сжатия : С потерями
Размер потока : 271 Мбайт (5%)
Заголовок : iTunes
Язык : Russian
ServiceKind/ : Complete Main
Default : Да
Forced : Нет

Аудио #2
Идентификатор : 3
Формат : AC-3
Формат/Информация : Audio Coding 3
Идентификатор кодека : A_AC3
Продолжительность : 1 ч. 38 м.
Вид битрейта : Постоянный
Битрейт : 448 Кбит/сек
Каналы : 6 каналов
Расположение каналов : Front: L C R, Side: L R, LFE
Частота : 48,0 КГц
Частота кадров : 31,250 кадров/сек (1536 SPF)
Битовая глубина : 16 бит
Метод сжатия : С потерями
Размер потока : 316 Мбайт (5%)
Заголовок : Оригинал
Язык : English
ServiceKind/ : Complete Main
Default : Нет
Forced : Нет

Меню
00:00:00.000 : :Глава 1
00:05:03.886 : :Глава 2
00:10:06.062 : :Глава 3
00:16:35.494 : :Глава 4
00:19:37.925 : :Глава 5
00:23:11.847 : :Глава 6
00:30:32.079 : :Глава 7
00:36:25.266 : :Глава 8
00:44:47.643 : :Глава 9
00:49:35.262 : :Глава 10
00:56:14.788 : :Глава 11
01:01:15.003 : :Глава 12
01:09:45.470 : :Глава 13
01:14:41.725 : :Глава 14
01:18:30.412 : :Глава 15
01:25:27.079 : :Глава 16
01:38:36.658 : :Глава 17

pb.wtf



Скачать Аксель через торрент https://a.radikal.ru/a31/1901/87/93276ea01335.jpg Скачать фильм Аксель через торрент бесплантно в хорошем качестве Описание: Юный мотоциклист Майлз случайно находит новую военную разработку - гигантскую собаку-робота по имени Аксель. Обладая ... 9.7 10 6
Торрент: Зарегистрирован [2019-02-24 05:11] · скачан: 224 раз
Статус: √ проверено
Размер: 5.73 GB
Как cкачать? Как скачать Аксель через торрент | qTorrent

% Раздел Тема Автор DL S | L
Фильмы 2018 [DVDrip, WEB-DLRip, HDrip] (DUB, MVO) [ 1.83 GB ] Аксель / A.X.L. [2018 BDRip-AVC] bober100 Скачать
3 | 0
Фильмы [HD 720p, 1080p] (Хороший звук DUB, MVO) [ 11.73 GB ] Аксель / A-X-L [2018 BDRip 1080p] -Lexx- Скачать
2 | 0
Фильмы (Blu-ray, BD-Remux, HDDVD) [ 25.56 GB ] Аксель / A.X.L. [2018 BD Remux 1080p] bober100 Скачать
2 | 0
Фильмы 2018 [DVDrip, WEB-DLRip, HDrip] (DUB, MVO) [ 747 MB ] Аксель / A.X.L. [2018 BDRip] bober100 Скачать
2 | 0
Фильмы 2018 [DVDrip, WEB-DLRip, HDrip] (DUB, MVO) [ 1.42 GB ] Аксель / A.X.L. [2018 BDRip] killermax2013 Скачать
3 | 0
T Фильмы с украинским озвучиванием [ 1.29 GB ] Аксель / A.X.L. [2018 WEB-DLRip] [Ukr DUB] killermax2013 Скачать
1 | 0

28-11-2019 20:33  

Отключить всю рекламу на сайте

    Дорогой пользователь! Огромная просьба, поблагодарите релизера, оцените раздачу и оставьте свои комментарий, если Вы скачали Аксель через торрент бесплатно! Внесите свою лепту в развитие PiratBit!
    Комментировать посты могут только пользователи прошедшие не сложную регистрацию
    Показать сообщения:    

    Аксель через торрент
    Скачать бесплатно Аксель
    Аксель скачать торрент
    Аксель смотреть онлайн
    Cкачать фильм Аксель бесплатно
    Аксель скачать торрент в хорошем качестве
    Аксель смотреть онлайн бесплатно в хорошем качестве


    Вы не можете начинать темы
    Вы не можете отвечать на сообщения
    Вы не можете редактировать свои сообщения
    Вы не можете удалять свои сообщения
    Вы не можете голосовать в опросах
    Вы не можете прикреплять файлы к сообщениям
    Вы можете скачивать файлы