Ссылка на приватное зеркало нашего сайта всего за 1$. Внимание количество ограничено!!!

2 сезон

iTunes

1 сезон

1

2 сезон

2 сезон

iTunes

1 сезон

RePack

30

Ultimate

ВАЖНО

ИГРА 18+

pack

RePack

MK11
pack

Забери бонус

RePack

jed

!!Акция!!

Alien_Rage

RePack

fifa19

RePack

Assassins Creed: Odyssey

RePack

NEED FOR SPEED™ PAYBACK

4 сезон

9 сезон

Бесстыжие 9 сезон

Все сериалы

все сериалы на PB.wtf

RePack

FAR CRY 5
  

Анна и апокалипсис / Anna and the Apocalypse (Джон МакПайл) [2017 г., Мюзикл, ужасы, фэнтези, комедия, WEB-DL 720p, Профессиональный многоголосый (HDRezka Studio)] pb.wtf

Анна и апокалипсис через торрент pb.wtf

Размер: 2.64 GB | Добавлен: 1 год 9 мес. назад | Торрент скачан:18 раз
Скачать  

24-02-2019 08:18 Анна и апокалипсис Скачать торрент  

Анна и апокалипсис / Anna and the Apocalypse
Год выпуска: 2017
Страна: Великобритания
Жанр: Мюзикл, ужасы, фэнтези, комедия
Продолжительность: 01:32:54
Перевод: Профессиональный многоголосый (HDRezka Studio)
Режиссер: Джон МакПайл
В ролях: Элла Хант, Малкольм Камминг, Сара Суайр, Кристофер Лево, Бен Уиггинс, Марли Сиу, Марк Бентон, Пол Кэй, Элла Джарвис, Калум Кормак
Описание: В обычном британском провинциальном городе обычные старшеклассники готовятся к встрече Рождества. Анна повздорила с отцом: тот мечтает видеть дочь студенткой университета, а сама девушка хочет путешествовать и уже купила билет в Австралию. В предпраздничной суете Анна и её одноклассники не сразу замечают, что в городке начинается эпидемия зомби
Качество: WEB-DL 720p
Формат: MKV
Видео кодек: AVC
Аудио кодек: AC3
Видео: 1280х720 , H264 ~ 3 891 kb/s , 23.976 FPS
Аудио: 48 kHz, AC3 Dolby Digital, 2 (L,R) ch, ~192.00 kbps avg , RUS (HDRezka Studio)

Семпл

Complete name : D:\Anna.and.the.Apocalypse.2017WEB-DL(720p).mkv
Format : Matroska
Format version : Version 4
File size : 2.64 GiB
Duration : 1 h 32 min
Overall bit rate : 4 065 kb/s
Movie name : Anna.and.the.Apocalypse.2017 #TorpedoUK#
Encoded date : UTC 2019-02-24 07:31:49
Writing application : Lavf58.12.100
Writing library : Lavf58.12.100
ErrorDetectionType : Per level 1

Video
ID : 1
Format : AVC
Format/Info : Advanced Video Codec
Format profile : Main@L3.1
Format settings : CABAC / 1 Ref Frames
Format settings, CABAC : Yes
Format settings, ReFrames : 1 frame
Format settings, GOP : M=1, N=25
Codec ID : V_MPEG4/ISO/AVC
Duration : 1 h 32 min
Bit rate mode : Constant
Bit rate : 7 793 kb/s
Nominal bit rate : 3 891 kb/s
Width : 1 280 pixels
Height : 720 pixels
Display aspect ratio : 16:9
Frame rate mode : Constant
Frame rate : 23.976 (23976/1000) FPS
Original frame rate : 23.976 (24000/1001) FPS
Color space : YUV
Chroma subsampling : 4:2:0
Bit depth : 8 bits
Scan type : Progressive
Bits/(Pixel*Frame) : 0.353
Stream size : 5.06 GiB
Default : Yes
Forced : No

Audio
ID : 2
Format : AAC LC
Format/Info : Advanced Audio Codec Low Complexity
Codec ID : A_AAC-2
Duration : 1 h 32 min
Bit rate : 192 kb/s
Channel(s) : 2 channels
Channel layout : L R
Sampling rate : 48.0 kHz
Frame rate : 46.875 FPS (1024 SPF)
Compression mode : Lossy
Stream size : 128 MiB (5%)
Title : MVO [HDRezka Studio]
Language : Russian
Default : Yes
Forced : No

скриншот   скриншот   скриншот   скриншот  
pb.wtf



Скачать Анна и апокалипсис через торрент http://img10.lostpic.net/2019/02/24/b513c143ed160a4f8ac6514e0eb0f9fa.png Скачать фильм Анна и апокалипсис через торрент бесплантно в хорошем качестве Описание: В обычном британском провинциальном городе обычные старшеклассники готовятся к встрече Рождества. Анна повздорила с отцом: тот ... 7 10 3
Торрент: Зарегистрирован [2019-02-24 08:18] · скачан: 18 раз
Статус: T временная
Размер: 2.64 GB
Как cкачать? Как скачать Анна и апокалипсис через торрент | qTorrent

% Раздел Тема Автор DL S | L
T Фильмы 2017 [DVDrip, WEB-DLRip, HDrip] (DUB, MVO) [ 1.63 GB ] Анна и апокалипсис / Anna and the Apocalypse [2017 Мюзикл WEB-DLRip-AVC] MVO [HDRezka Studio] bober100 Скачать
1 | 0
T Фильмы (WEB-DL 720p, 1080p) [ 5.6 GB ] Анна и апокалипсис / Anna and the Apocalypse [2017 Мюзикл WEB-DL 1080p] MVO [HDRezka Studio] bober100 Скачать
1 | 0


Последний раз редактировалось: Яйцеслав (2019-02-24 08:46), всего редактировалось 1 раз

28-11-2019 20:33  

Отключить всю рекламу на сайте

24-02-2019 08:49 Анна и апокалипсис Скачать торрент  

Топик был перенесен из форума Оформление раздач (Кино, Видео и ТВ) в форум Фильмы (WEB-DL 720p, 1080p)


bober100pb.wtf



    Дорогой пользователь! Огромная просьба, поблагодарите релизера, оцените раздачу и оставьте свои комментарий, если Вы скачали Анна и апокалипсис через торрент бесплатно! Внесите свою лепту в развитие PiratBit!
    Комментировать посты могут только пользователи прошедшие не сложную регистрацию
    Показать сообщения:    

    Анна и апокалипсис через торрент
    Скачать бесплатно Анна и апокалипсис
    Анна и апокалипсис скачать торрент
    Анна и апокалипсис смотреть онлайн
    Cкачать фильм Анна и апокалипсис бесплатно
    Анна и апокалипсис скачать торрент в хорошем качестве
    Анна и апокалипсис смотреть онлайн бесплатно в хорошем качестве


    Вы не можете начинать темы
    Вы не можете отвечать на сообщения
    Вы не можете редактировать свои сообщения
    Вы не можете удалять свои сообщения
    Вы не можете голосовать в опросах
    Вы не можете прикреплять файлы к сообщениям
    Вы можете скачивать файлы