новый адрес
Мега распродажа FORZA HORIZON 4 ULTIMATE+ВСЕ DLC+ОНЛАЙН всего за 499р. 349 руб. (супер цена). Внимание количество ограничено!!!

iTunes

1+1

iTunes

мы

iTunes

1

iTunes

Чернобыль

iTunes

Ральф против интернета

Лицензия

ПШазам

Лицензия

Оно 2

Лицензия

30
pack

ВАЖНО

!!Акция!!

Alien_RageХит недели

RePack

Resident Evil 21

ИГРА 18+

pack

RePack

jed

!!Акция!!

Alien_Rage

RePack

fifa19

RePack

Assassins Creed: Odyssey

RePack

NEED FOR SPEED™ PAYBACK

3 сезон

9 сезон

Бесстыжие 9 сезон

Все сериалы

все сериалы на PB.wtf

RePack

FAR CRY 5
Ребята, катастрофически не хватает 1900р. для оплаты серверов за Октябрь (всвязи с блокировками трафик упал в 3 раза), 1-2р., выручайте.
  

Чудак-человек (Владимир Кочетов) [1962, СССР, комедия, DVDRip от AVP Studio] pb.wtf

Чудак-человек через торрент pb.wtf

Размер: 867 MB | Добавлен: 8 мес. назад | Торрент скачан:10 раз
Скачать  

24-02-2019 08:49 Чудак-человек Скачать торрент  

Чудак-человек
Страна: СССР
Производство: Одесская киностудия

Жанр: комедия
Год выпуска: 1962
Продолжительность: 01:03:18

Перевод: Не требуется
Cубтитры: нет
Оригинальная аудиодорожка: русский

Режиссер: Владимир Кочетов

В ролях:
Михаил Пуговкин, Светлана Живанкова, Борис Ситко, Борис Белов, Аркадий Трусов, Константин Параконьев, Н. Кабакова, Любовь Малиновская, Елизавета Никищихина, Григорий Михайлов...
Об актёрах подробней

Описание:
Первое, что довелось увидеть в своем кабинете новому управляющему «Заготскотконторы» Максиму Меже - это поросенок, зажаренный с румяной корочкой и с бумажной ленточкой в зубах. А на ней надпись: "На новом жизни рубеже - привет товарищу Меже". А в это самое время в квартире Максима стали появляться гости с подарками...

Источник: DVD5 R5
Качество видео: DVDRip
Формат видео: AVI

Видео: 688х512 (4:3), 25 fps, XviD ~ 1457 kbps avg, 0.165 bit/pixel
Аудио: 48 kHz, Dolby Digital AC3 5.1, 448 kbps

Раздача от:
Общее
Полное имя : CHudak-chelovek.1962.DVDRip_[New-team]_by_AVP_Studio.avi
Формат : AVI
Формат/Информация : Audio Video Interleave
Размер файла : 867 Мбайт
Продолжительность : 1 ч. 3 м.
Общий поток : 1915 Кбит/сек
Программа кодирования : VirtualDubMod 1.5.10.3 | www.virtualdub-fr.org || (build 2550/release)
Библиотека кодирования : VirtualDubMod build 2550/release

Видео
Идентификатор : 0
Формат : MPEG-4 Visual
Профиль формата : Advanced Simple@L5
Настройки формата : BVOP1 / Custom Matrix
Параметр BVOP формата : 1
Параметр QPel формата : Нет
Параметр GMC формата : Без точки перехода
Параметр матрицы формата : Выборочная
Идентификатор кодека : XVID
Идентификатор кодека/Подсказка : XviD
Продолжительность : 1 ч. 3 м.
Битрейт : 1457 Кбит/сек
Ширина : 688 пикселей
Высота : 512 пикселей
Соотношение сторон : 4:3
Частота кадров : 25,000 кадров/сек
Цветовое пространство : YUV
Субдискретизация насыщенности : 4:2:0
Битовая глубина : 8 бит
Тип развёртки : Прогрессивная
Метод сжатия : С потерями
Бит/(Пиксели*Кадры) : 0.165
Размер потока : 660 Мбайт (76%)
Библиотека кодирования : XviD 73

Аудио
Идентификатор : 1
Формат : AC-3
Формат/Информация : Audio Coding 3
Коммерческое название : Dolby Digital
Идентификатор кодека : 2000
Продолжительность : 1 ч. 3 м.
Вид битрейта : Постоянный
Битрейт : 448 Кбит/сек
Каналы : 6 каналов
Channel layout : L R C LFE Ls Rs
Частота : 48,0 КГц
Частота кадров : 31,250 кадров/сек (1536 SPF)
Битовая глубина : 16 бит
Метод сжатия : С потерями
Размер потока : 203 Мбайт (23%)
Выравнивание : Разделение по промежуткам
Продолжительность промежутка : 40 мс. (1,00 видеокадр)
Время предзагрузки промежутка : 500 мс
pb.wtf



Скачать Чудак-человек через торрент http://picplus.ru/img/1902/23/71f1b172.png Скачать фильм Чудак-человек через торрент бесплантно в хорошем качестве Описание:Первое, что довелось увидеть в своем кабинете новому управляющему «Заготскотконторы» Максиму Меже - это поросенок, зажаренный с ... 5 10 1
Торрент: Зарегистрирован [2019-02-24 08:49] · скачан: 10 раз
Статус: √ проверено
Размер: 867 MB
Как cкачать? Как скачать Чудак-человек через торрент | qTorrent

% Раздел Тема Автор DL S | L
Кино СССР [ 1.09 GB ] Чудак-человек [1962 СССР DVDRip-AVC от AVP Studio] AVP Studio Скачать
2 | 0


>> Регистрируемся здесь <<






Отзывы и комментарии о схеме читаем и пишем здесь: ---> Отзывы и комментарии о схеме

Новые благодарочки в телеграм довольных пользователей:
скриншот   скриншот   скриншот   скриншот   скриншот

24-02-2019 09:24 Чудак-человек Скачать торрент  

СПАСИБО!!! Записываю для тёщи. Она любит такие фильмы.
pb.wtf



    Дорогой пользователь! Огромная просьба, поблагодарите релизера, оцените раздачу и оставьте свои комментарий, если Вы скачали Чудак-человек через торрент бесплатно! Внесите свою лепту в развитие PiratBit!
    Комментировать посты могут только пользователи прошедшие не сложную регистрацию
    Показать сообщения:    

    Чудак-человек через торрент
    Скачать бесплатно Чудак-человек
    Чудак-человек скачать торрент
    Чудак-человек смотреть онлайн
    Cкачать фильм Чудак-человек бесплатно
    Чудак-человек скачать торрент в хорошем качестве
    Чудак-человек смотреть онлайн бесплатно в хорошем качестве


    Вы не можете начинать темы
    Вы не можете отвечать на сообщения
    Вы не можете редактировать свои сообщения
    Вы не можете удалять свои сообщения
    Вы не можете голосовать в опросах
    Вы не можете прикреплять файлы к сообщениям
    Вы можете скачивать файлы