Ссылка на приватное зеркало всего за 1$. Внимание количество ограничено!!!

iTunes

iTunes

iTunes

1

iTunes

iTunes

iTunes

iTunes

iTunes

30
pack

$ от Little Big

ВАЖНО

!!Акция!!

Alien_RageХит недели

RePack

Resident Evil 21

ИГРА 18+

pack

RePack

jed

!!Акция!!

Alien_Rage

RePack

fifa19

RePack

Assassins Creed: Odyssey

RePack

NEED FOR SPEED™ PAYBACK

4 сезон

9 сезон

Бесстыжие 9 сезон

Все сериалы

все сериалы на PB.wtf

RePack

FAR CRY 5
  

Экстаз / Climax (Гаспар Ноэ) [2018, мюзикл, ужасы, драма, детектив, BDRip 1080p] MVO [HDrezka Studio] pb.wtf

Экстаз через торрент pb.wtf

Размер: 13.93 GB | Добавлен: 1 год 4 мес. назад | Торрент скачан:181 раз
Скачать  

24-02-2019 10:57 Экстаз Скачать торрент  

Экстаз / Climax Год выпуска: 2018
Страна: Франция
Жанр: мюзикл, ужасы, драма, детектив
Продолжительность: 01:36:30
Перевод: Профессиональный (многоголосый) | HDRezka Studio
Субтитры: Русские (полные), Английские (полные)

Режиссер: Гаспар Ноэ

rating

В ролях:

София Бутелла, Ромен Гийермик, Сухейла Якуб, Смайл Кидди, Клод Гаян Малл, Жизелль Палмер, Тейлор Кастл, Теа Карла Шотт, Шерлин Темпл, Леа Вламос

Описание:

Рождение и смерть - невероятный опыт, а жизнь - ускользающее наслаждение. Выпускники академии современного танца решают устроить прощальную вечеринку. Однако таинственным образом под нарастающий ритм музыки их всех охватывает эйфория, которой невозможно сопротивляться. Теперь балом правит зловещий хаос и спасение можно найти, только отдав свою душу танцу. Для одних эта ночь обернется суровым испытанием, а другие познают настоящий экстаз...

Качество: BDRip 1080p
Формат: MKV

Видео: 1920x806 (2.40:1), 23,976 fps, x264 ~19.8 Mbps avg, 0.534 bit/pixel
Аудио#1: 48 kHz, AC3 Dolby Digital, 2 (L,R) ch, ~192.00 kbps avg | RUS (HDRezka Studio)
Аудио#2: 48 kHz, AC3 Dolby Digital, 3/2 (L,C,R,l,r) + LFE ch, ~640.00 kbps avg | ENG
скриншот  скриншот  скриншот  скриншот  

Общее
Уникальный идентификатор : 125698629846004669040903717722102703898 (0x5E90ACEECE466DCBC260C2444EE8271A)
Полное имя : F:OlLanDGroupClimax.2018.BDRip(1080p).OlLanDGroup.mkv
Формат : Matroska
Версия формата : Version 4 / Version 2
Размер файла : 13,9 Гбайт
Продолжительность : 1 ч. 36 м.
Общий поток : 20,7 Мбит/сек
Название фильма : Climax.2018 #TorpedoUK#
Дата кодирования : UTC 2019-02-24 10:11:12
Программа кодирования : mkvmerge v29.0.0 ('Like It Or Not') 64-bit
Библиотека кодирования : libebml v1.3.6 + libmatroska v1.4.9

Видео
Идентификатор : 1
Формат : AVC
Формат/Информация : Advanced Video Codec
Профиль формата : High@L4.1
Параметр CABAC формата : Да
Параметр ReFrames формата : 5 кадров
Идентификатор кодека : V_MPEG4/ISO/AVC
Продолжительность : 1 ч. 36 м.
Битрейт : 19,8 Мбит/сек
Ширина : 1920 пикселей
Высота : 806 пикселей
Соотношение сторон : 2,40:1
Режим частоты кадров : Постоянный
Частота кадров : 23,976 (24000/1001) кадра/сек
Цветовое пространство : YUV
Субдискретизация насыщенности : 4:2:0
Битовая глубина : 8 бит
Тип развёртки : Прогрессивная
Бит/(Пиксели*Кадры) : 0.534
Размер потока : 13,4 Гбайт (96%)
Библиотека кодирования : x264 core 155 r2867+82 a249126 t_mod_Custom_2 [8-bit@all X86_64]
Настройки программы : cabac=1 / ref=5 / deblock=1:-3:-3 / analyse=0x3:0x133 / me=umh / subme=10 / psy=1 / fade_compensate=0.00 / psy_rd=1.00:0.00 / mixed_ref=1 / me_range=32 / chroma_me=1 / trellis=2 / 8x8dct=1 / cqm=0 / deadzone=21,11 / fast_pskip=0 / chroma_qp_offset=-2 / threads=24 / lookahead_threads=4 / sliced_threads=0 / nr=0 / decimate=0 / interlaced=0 / bluray_compat=0 / constrained_intra=0 / fgo=0 / bframes=7 / b_pyramid=2 / b_adapt=2 / b_bias=0 / direct=3 / weightb=1 / open_gop=0 / weightp=2 / keyint=250 / keyint_min=23 / scenecut=40 / intra_refresh=0 / rc_lookahead=60 / rc=crf / mbtree=0 / crf=18.8000 / qcomp=0.60 / qpmin=0:0:0 / qpmax=69:69:69 / qpstep=4 / vbv_maxrate=62500 / vbv_bufsize=78125 / crf_max=0.0 / nal_hrd=none / filler=0 / ip_ratio=1.25 / pb_ratio=1.15 / aq=3:0.80 / aq-sensitivity=10.00 / aq-factor=1.00:1.00:1.00 / aq2=0 / aq3=0 / zones=14324,14698,crf=14
Язык : English
Default : Да
Forced : Нет

Аудио #1
Идентификатор : 2
Формат : AC-3
Формат/Информация : Audio Coding 3
Расширение режима : CM (complete main)
Параметр Endianness формата : Big
Идентификатор кодека : A_AC3
Продолжительность : 1 ч. 36 м.
Вид битрейта : Постоянный
Битрейт : 192 Кбит/сек
Каналы : 2 канала
Расположение каналов : Front: L R
Частота : 48,0 КГц
Частота кадров : 31,250 кадров/сек (1536 spf)
Битовая глубина : 16 бит
Метод сжатия : С потерями
Размер потока : 133 Мбайт (1%)
Заголовок : MVO [HDRezka Studio]
Язык : Russian
Default : Да
Forced : Нет

Аудио #2
Идентификатор : 3
Формат : AC-3
Формат/Информация : Audio Coding 3
Расширение режима : CM (complete main)
Параметр Endianness формата : Big
Идентификатор кодека : A_AC3
Продолжительность : 1 ч. 36 м.
Вид битрейта : Постоянный
Битрейт : 640 Кбит/сек
Каналы : 6 каналов
Расположение каналов : Front: L C R, Side: L R, LFE
Частота : 48,0 КГц
Частота кадров : 31,250 кадров/сек (1536 spf)
Битовая глубина : 16 бит
Метод сжатия : С потерями
Размер потока : 442 Мбайт (3%)
Заголовок : [Original]
Язык : French
Default : Нет
Forced : Нет

Текст #1
Идентификатор : 4
Формат : UTF-8
Идентификатор кодека : S_TEXT/UTF8
Идентификатор кодека/Информация : UTF-8 Plain Text
Продолжительность : 1 ч. 32 м.
Битрейт : 56 бит/сек
Count of elements : 1117
Размер потока : 38,3 Кбайт (0%)
Заголовок : Full
Язык : Russian
Default : Нет
Forced : Нет

Текст #2
Идентификатор : 5
Формат : UTF-8
Идентификатор кодека : S_TEXT/UTF8
Идентификатор кодека/Информация : UTF-8 Plain Text
Продолжительность : 1 ч. 32 м.
Битрейт : 28 бит/сек
Count of elements : 1073
Размер потока : 19,4 Кбайт (0%)
Заголовок : Full
Язык : English
Default : Нет
Forced : Нет

Меню
00:00:00.000 : en:00:00:00.000
00:09:34.783 : en:00:09:34.783
00:15:17.708 : en:00:15:17.708
00:23:33.621 : en:00:23:33.621
00:31:16.416 : en:00:31:16.416
00:37:39.299 : en:00:37:39.299
00:47:18.419 : en:00:47:18.419
00:54:03.198 : en:00:54:03.198
01:04:59.354 : en:01:04:59.354
01:11:01.966 : en:01:11:01.966
01:20:35.622 : en:01:20:35.622
01:30:17.037 : en:01:30:17.037

pb.wtf



Скачать Экстаз через торрент https://i109.fastpic.ru/big/2019/0224/9a/e5938287b85a32d40499acf4f23f309a.jpg Скачать фильм Экстаз через торрент бесплантно в хорошем качестве Описание: Рождение и смерть - невероятный опыт, а жизнь - ускользающее наслаждение. Выпускники академии современного танца решают устроить ... 10 10 4
Торрент: Зарегистрирован [2019-02-24 10:57] · скачан: 181 раз
Статус: T временная
Размер: 13.93 GB
Как cкачать? Как скачать Экстаз через торрент | qTorrent

% Раздел Тема Автор DL S | L
Фильмы 2018 [DVDrip, WEB-DLRip, HDrip] (DUB, MVO) [ 1.42 GB ] Экстаз / Climax [2018 мюзикл BDRip] - Twi7ter Скачать
1 | 0
Фильмы (Blu-ray, BD-Remux, HDDVD) [ 23.5 GB ] Экстаз / Climax [2018 мюзикл BD Remux 1080p] MVO [HDrezka Studio] +MVO + bober100 Скачать
1 | 0
Фильмы 2018 [DVDrip, WEB-DLRip, HDrip] (DUB, MVO) [ 1.93 GB ] Экстаз / Climax [2018 мюзикл BDRip-AVC] MVO [HDrezka Studio] + bober100 Скачать
1 | 0
Фильмы 2018 [DVDrip, WEB-DLRip, HDrip] (DUB, MVO) [ 1.42 GB ] Экстаз / Climax [2018 мюзикл BDRip] bober100 Скачать
2 | 0

28-11-2019 20:33  

Отключить всю рекламу на сайте

03-03-2019 10:46 Экстаз Скачать торрент  

Специально зашел после просмотра,чтоб оставить отзыв об этом д...е с завышенными оценками.Пид...ы в юбках и прочяя дрянь,сюжет никакой,досмотрел просто из за того,что начал.Отвратный фильм,давненько подобного не попадалось.Не рекомендую.pb.wtf



    Дорогой пользователь! Огромная просьба, поблагодарите релизера, оцените раздачу и оставьте свои комментарий, если Вы скачали Экстаз через торрент бесплатно! Внесите свою лепту в развитие PiratBit!
    Комментировать посты могут только пользователи прошедшие не сложную регистрацию
    Показать сообщения:    

    Экстаз через торрент
    Скачать бесплатно Экстаз
    Экстаз скачать торрент
    Экстаз смотреть онлайн
    Cкачать фильм Экстаз бесплатно
    Экстаз скачать торрент в хорошем качестве
    Экстаз смотреть онлайн бесплатно в хорошем качестве


    Вы не можете начинать темы
    Вы не можете отвечать на сообщения
    Вы не можете редактировать свои сообщения
    Вы не можете удалять свои сообщения
    Вы не можете голосовать в опросах
    Вы не можете прикреплять файлы к сообщениям
    Вы можете скачивать файлы