новый адрес
Ссылка на приватное зеркало всего за 1$. Внимание количество ограничено!!!

iTunes

1+1

iTunes

мы

iTunes

1

iTunes

Чернобыль

iTunes

Ральф против интернета

Лицензия

ПШазам

Лицензия

Оно 2

Лицензия

30
pack

Вам бонус

ВАЖНО

!!Акция!!

Alien_RageХит недели

RePack

Resident Evil 21

ИГРА 18+

pack

RePack

jed

!!Акция!!

Alien_Rage

RePack

fifa19

RePack

Assassins Creed: Odyssey

RePack

NEED FOR SPEED™ PAYBACK

3 сезон

9 сезон

Бесстыжие 9 сезон

Все сериалы

все сериалы на PB.wtf

RePack

FAR CRY 5
Ребята, катастрофически не хватает 1900р. для оплаты серверов за Октябрь (всвязи с блокировками трафик упал в 3 раза), 1-2р., выручайте.
  

Полночное солнце / Midnight Sun (Скотт Спир) [2018 г., драма, мелодрама, HDRip, Дубляж "Лицензия R5"] pb.wtf

Полночное солнце через торрент pb.wtf

Размер: 707 MB | Добавлен: 9 мес. назад | Торрент скачан:21 раз
Скачать  

24-02-2019 18:30 Полночное солнце Скачать торрент  

Полночное солнце / Midnight Sun
Год выпуска: 2018
Страна: США / Boies / Schiller Film Group, Wrigley Pictures
Жанр: драма, мелодрама
Продолжительность: 01:31:52
Перевод: Дубляж (Лицензия R5)

Режиссер: Скотт Спир

rating

В ролях: Белла Торн, Патрик Шварценеггер, Роб Риггл, Куинн Шепард, Кен Тремблетт, Сулека Мэтью, Джен Гриффин, Николас Кумбе, Тиера Сковбай, Норм Мисура

Описание: Ночами 17-летняя Кэти сочиняет свои красивые песни под гитару, а днем вынуждена скрываться во мраке: её нежная кожа не выносит солнечного света. Но однажды в полночь она знакомится с Чарли, веселым парнем с копной рыжих, как солнце, волос и очаровательной улыбкой. Внезапная и страстная любовь яркой вспышкой озаряет жизнь больной девушки. И теперь ради возлюбленного она готова сгореть в лучах света безумного чувства...

Качество: HDRip
Формат: AVI
Видео кодек: XviD
Аудио кодек: MP3
Видео: 640x272 (2.35:1), 23.976 fps, XviD build 50 ~939 kbps avg, 0.23 bit/pixel
Аудио: 48 kHz, MPEG Layer 3, 2 ch, ~128.00 kbps avg
скриншот   скриншот   скриншот   скриншот  

Общее
Полное имя : F:\ФИЛЬМЫ\Полночное солнце.2018.D.HDRip.avi
Формат : AVI
Формат/Информация : Audio Video Interleave
Размер файла : 707 Мбайт
Продолжительность : 1 ч. 31 м.
Общий поток : 1076 Кбит/сек
Программа кодирования : VirtualDubMod 1.5.10.3 | www.virtualdub-fr.org || (build 2550/release)
Библиотека кодирования : VirtualDubMod build 2550/release

Видео
Идентификатор : 0
Формат : MPEG-4 Visual
Профиль формата : Advanced Simple@L5
Настройки формата : BVOP1
Параметр BVOP формата : 1
Параметр QPel формата : Нет
Параметр GMC формата : Без точки перехода
Параметр матрицы формата : Default (MPEG)
Идентификатор кодека : XVID
Идентификатор кодека/Подсказка : XviD
Продолжительность : 1 ч. 31 м.
Битрейт : 939 Кбит/сек
Ширина : 640 пикселей
Высота : 272 пикселя
Соотношение сторон : 2,35:1
Частота кадров : 23,976 (24000/1001) кадра/сек
Цветовое пространство : YUV
Субдискретизация насыщенности : 4:2:0
Битовая глубина : 8 бит
Тип развёртки : Прогрессивная
Метод сжатия : С потерями
Бит/(Пиксели*Кадры) : 0.225
Размер потока : 617 Мбайт (87%)
Библиотека кодирования : XviD 1.2.1 (UTC 2008-12-04)

Аудио
Идентификатор : 1
Формат : MPEG Audio
Версия формата : Version 1
Профиль формата : Layer 3
Настройки формата : Joint stereo
Идентификатор кодека : 55
Идентификатор кодека/Подсказка : MP3
Продолжительность : 1 ч. 31 м.
Вид битрейта : Постоянный
Битрейт : 128 Кбит/сек
Каналы : 2 канала
Частота : 48,0 КГц
Частота кадров : 41,667 кадра/сек (1152 SPF)
Метод сжатия : С потерями
Размер потока : 84,1 Мбайт (12%)
Выравнивание : Соединение по промежуткам
Продолжительность промежутка : 42 мс. (1,00 видеокадр)
Время предзагрузки промежутка : 504 мс.
Библиотека кодирования : LAME3.99r
Настройки программы : -m j -V 4 -q 2 -lowpass 17 -b 128

pb.wtf



Скачать Полночное солнце через торрент http://pic1.kartinco.top/images/12/lvses.jpg Скачать фильм Полночное солнце через торрент бесплантно в хорошем качестве Описание: Ночами 17-летняя Кэти сочиняет свои красивые песни под гитару, а днем вынуждена скрываться во мраке: её нежная кожа не выносит ... 10 10 1
Торрент: Зарегистрирован [2019-02-24 18:30] · скачан: 21 раз
Статус: √ проверено
Размер: 707 MB
Как cкачать? Как скачать Полночное солнце через торрент | qTorrent

% Раздел Тема Автор DL S | L
Фильмы 2018 [DVDrip, WEB-DLRip, HDrip] (DUB, MVO) [ 1.46 GB ] Полночное солнце / Midnight Sun [2018 BDRip] - [] Twi7ter Скачать
1 | 0
Фильмы [HD 720p, 1080p] (Хороший звук DUB, MVO) [ 9.62 GB ] Полночное солнце / Midnight Sun [2018 BDRip 1080p] DUB [ R5] bober100 Скачать
1 | 0
Фильмы (Blu-ray, BD-Remux, HDDVD) [ 24.65 GB ] Полночное солнце / Midnight Sun [2018 BD Remux 1080p] DUB [ R5] bober100 Скачать
1 | 0
Фильмы [HD 720p, 1080p] (Хороший звук DUB, MVO) [ 4.29 GB ] Полночное солнце / Midnight Sun [2018 BDRip 720p] DUB [ R5] bober100 Скачать
1 | 0
Фильмы 2018 [DVDrip, WEB-DLRip, HDrip] (DUB, MVO) [ 1.46 GB ] Полночное солнце / Midnight Sun [2018 BDRip] DUB [ R5] bober100 Скачать
1 | 0
Отключить всю рекламу на сайте

25-02-2019 13:33 Полночное солнце Скачать торрент  

кто- нибудь видел рыжие как солнце волосы или мне идти на дальтонизм проверяться pb.wtf



    Дорогой пользователь! Огромная просьба, поблагодарите релизера, оцените раздачу и оставьте свои комментарий, если Вы скачали Полночное солнце через торрент бесплатно! Внесите свою лепту в развитие PiratBit!
    Комментировать посты могут только пользователи прошедшие не сложную регистрацию
    Показать сообщения:    

    Полночное солнце через торрент
    Скачать бесплатно Полночное солнце
    Полночное солнце скачать торрент
    Полночное солнце смотреть онлайн
    Cкачать фильм Полночное солнце бесплатно
    Полночное солнце скачать торрент в хорошем качестве
    Полночное солнце смотреть онлайн бесплатно в хорошем качестве


    Вы не можете начинать темы
    Вы не можете отвечать на сообщения
    Вы не можете редактировать свои сообщения
    Вы не можете удалять свои сообщения
    Вы не можете голосовать в опросах
    Вы не можете прикреплять файлы к сообщениям
    Вы можете скачивать файлы