Ссылка на приватное зеркало нашего сайта всего за 1$. Внимание количество ограничено!!!

2 сезон

iTunes

iTunes

1

iTunes

iTunes

iTunes

WEBRip

iTunes

30
pack

Забери бонус

ВАЖНО

!!Акция!!

Alien_RageХит недели

RePack

RESIDENT EVIL 3: NEMESIS REMAKE

ИГРА 18+

pack

RePack

jed

!!Акция!!

Alien_Rage

RePack

fifa19

RePack

Assassins Creed: Odyssey

RePack

NEED FOR SPEED™ PAYBACK

4 сезон

9 сезон

Бесстыжие 9 сезон

Все сериалы

все сериалы на PB.wtf

RePack

FAR CRY 5
  

Война викингов / The Viking War (Луиса Уоррен) [2019, История, WEB-DL 720p] MVO ["Синема УС"] pb.wtf

Война викингов через торрент pb.wtf

Размер: 4.2 GB | Добавлен: 1 год 7 мес. назад | Торрент скачан:151 раз
Скачать  

24-02-2019 19:24 Война викингов Скачать торрент  

Война викингов / The Viking War Год выпуска: 2019
Страна: Великобритания
Жанр: История
Продолжительность: 01:44:31
Перевод: Любительский (многоголосый) | "Синема УС"
Субтитры: отсутствуют

Режиссер: Луиса Уоррен

rating

В ролях:

Дарси Линкольн, Питер Косгров, Виктор Тот, Джордж Вуд, Мишель Арчер, Дэниэл Иган, Луиса Уоррен, Сара Т. Коэн, Тони Мандерс, Кассандра Френч

Описание:

Армия воинов-берсерков разоряет королевство викингов на Шетландских островах. Дети короля вынуждены бежать вглубь острова, чтобы спастись от кровожадных убийц, преследующих их по пятам.

Качество: WEB-DL 720p
Формат: MKV

Видео: h.264, 5 373 Кбит/с, 1280x544
Аудио: Русский, (AC3, 2 ch, 384 Кбит/с)
скриншот  скриншот  скриншот  

Общее
Уникальный идентификатор : 235455111607823630848990475155300146761 (0xB1230147B5B50C40BC699356B683DE49)
Полное имя : D:\The.Viking.War.2019.P.WEB-DL.72Op.mkv
Формат : Matroska
Версия формата : Version 2
Размер файла : 4,20 Гбайт
Продолжительность : 1 ч. 44 м.
Режим общего битрейта : Переменный
Общий поток : 5759 Кбит/сек
Дата кодирования : UTC 2019-02-24 01:10:11
Программа кодирования : mkvmerge v8.3.0 ('Over the Horizon') 64bit
Библиотека кодирования : libebml v1.3.1 + libmatroska v1.4.2

Видео
Идентификатор : 1
Формат : AVC
Формат/Информация : Advanced Video Codec
Профиль формата : High@L4.1
Параметр CABAC формата : Да
Параметр RefFrames формата : 4 кадра
Идентификатор кодека : V_MPEG4/ISO/AVC
Продолжительность : 1 ч. 44 м.
Вид битрейта : Переменный
Битрейт : 5373 Кбит/сек
Максимальный битрейт : 6000 Кбит/сек
Ширина : 1280 пикселей
Высота : 544 пикселя
Соотношение сторон : 2,35:1
Режим частоты кадров : Постоянный
Частота кадров : 23,976 (24000/1001) кадра/сек
Стандарт вещания : Component
Цветовое пространство : YUV
Субдискретизация насыщенности : 4:2:0
Битовая глубина : 8 бит
Тип развёртки : Прогрессивная
Бит/(Пиксели*Кадры) : 0.315
Размер потока : 3,84 Гбайт (91%)
Default : Да
Forced : Нет
Цветовой диапазон : Limited
Основные цвета : BT.709
Характеристики трансфера : BT.709
Коэффициенты матрицы : BT.709

Аудио
Идентификатор : 2
Формат : AC-3
Формат/Информация : Audio Coding 3
Расширение режима : CM (complete main)
Параметр Endianness формата : Big
Идентификатор кодека : A_AC3
Продолжительность : 1 ч. 44 м.
Вид битрейта : Постоянный
Битрейт : 384 Кбит/сек
Каналы : 2 канала
Расположение каналов : Front: L R
Частота : 48,0 КГц
Частота кадров : 31,250 кадров/сек (1536 spf)
Метод сжатия : С потерями
Размер потока : 287 Мбайт (7%)
Default : Да
Forced : Нет

pb.wtf



Скачать Война викингов через торрент https://c.radikal.ru/c07/1902/99/11d8ece3643c.jpg Скачать фильм Война викингов через торрент бесплантно в хорошем качестве Описание: Армия воинов-берсерков разоряет королевство викингов на Шетландских островах. Дети короля вынуждены бежать вглубь острова, чтобы ... 9.9 10 9
Торрент: Зарегистрирован [2019-02-24 19:24] · скачан: 151 раз
Статус: T временная
Размер: 4.2 GB
Как cкачать? Как скачать Война викингов через торрент | qTorrent

% Раздел Тема Автор DL S | L
T Фильмы (мультфильмы) cо спонсором показа (Новинки AVI/MKV) [ 1.46 GB ] Война викингов / The Viking War [2019 История WEB-DLRip] MVO ["Синема УС"] bober100 Скачать
1 | 0

28-11-2019 20:33  

Отключить всю рекламу на сайте

25-02-2019 13:51 Война викингов Скачать торрент  

полный шлак . нет смысла качать . смотрел на перемотке .pb.wtf



27-02-2019 11:40 Война викингов Скачать торрент  

Цитата:

полный шлак

Ну а что вы хотели.
Режисёр Люська Ворон - пышномордая молодая девица которая за последние пару лет клепает фильмы пачками с рейтингом от 3.5 и ниже.pb.wtf



    Дорогой пользователь! Огромная просьба, поблагодарите релизера, оцените раздачу и оставьте свои комментарий, если Вы скачали Война викингов через торрент бесплатно! Внесите свою лепту в развитие PiratBit!
    Комментировать посты могут только пользователи прошедшие не сложную регистрацию
    Показать сообщения:    

    Война викингов через торрент
    Скачать бесплатно Война викингов
    Война викингов скачать торрент
    Война викингов смотреть онлайн
    Cкачать фильм Война викингов бесплатно
    Война викингов скачать торрент в хорошем качестве
    Война викингов смотреть онлайн бесплатно в хорошем качестве


    Вы не можете начинать темы
    Вы не можете отвечать на сообщения
    Вы не можете редактировать свои сообщения
    Вы не можете удалять свои сообщения
    Вы не можете голосовать в опросах
    Вы не можете прикреплять файлы к сообщениям
    Вы можете скачивать файлы