Ссылка на приватное зеркало всего за 1$. Внимание количество ограничено!!!

OK

1+1

iTunes

мы

OK

1

WEB-DLRip

Джокер

Пифагор

Ведьмак / The Witcher сериал

Лицензия

ПШазам

ОК

Оно 2

iTunes

30
pack

Вам бонус

ВАЖНО

!!Акция!!

Alien_RageХит недели

RePack

Resident Evil 21

ИГРА 18+

pack

RePack

jed

!!Акция!!

Alien_Rage

RePack

fifa19

RePack

Assassins Creed: Odyssey

RePack

NEED FOR SPEED™ PAYBACK

4 сезон

9 сезон

Бесстыжие 9 сезон

Все сериалы

все сериалы на PB.wtf

RePack

FAR CRY 5
  

Диванная терапия / O Amor no Divã (Александр Рейнеке) [2016, комедия, WEB-DL 720p] MVO ["Синема УС"] pb.wtf

Диванная терапия через торрент pb.wtf

Размер: 3.4 GB | Добавлен: 10 мес. назад | Торрент скачан:24 раза
Скачать  

24-02-2019 19:45 Диванная терапия Скачать торрент  

Диванная терапия / O Amor no DivãГод выпуска: 2016
Страна: Бразилия
Жанр: комедия
Продолжительность: 01:29:15
Перевод: Любительский (многоголосый) | "Синема УС"
Субтитры: отсутствуют

Режиссер: Александр Рейнеке

rating

В ролях:

Зезе Полесса, Даниэль Данташ, Фернанда Паэс Леме, Пауло Вильена, Джулиана Мескита, Соня Гедес, Антониу Петрин

Описание:

Уважаемый семейный психолог Малка Стейн после консультации новой пары проблемных супругов вдруг понимает, что ее собственному 30-летнему браку также не помешает аналогичная помощь. Комическое переплетение историй терапии обеих семей, экспериментирующих над собой в попытке ускоренными темпами вернуть гармонию и яркость былой страсти.

Качество: WEB-DL 720p
Формат: MKV

Видео: 5074 Кбит/с, 1280x720
Аудио#1: Русский, (AC3, 2 ch, 384 Кбит/с)
скриншот  скриншот  скриншот  

Общее
Уникальный идентификатор : 235957007500872512690722024686062368222 (0xB183AAA87C6F12208F207B72175775DE)
Полное имя : D:\Couples.Counseling.2016.P.WEB-DL.72Op_KOSHARA.mkv
Формат : Matroska
Версия формата : Version 2
Размер файла : 3,40 Гбайт
Продолжительность : 1 ч. 29 м.
Режим общего битрейта : Переменный
Общий поток : 5460 Кбит/сек
Дата кодирования : UTC 2019-02-23 10:13:32
Программа кодирования : mkvmerge v8.3.0 ('Over the Horizon') 64bit
Библиотека кодирования : libebml v1.3.1 + libmatroska v1.4.2

Видео
Идентификатор : 1
Формат : AVC
Формат/Информация : Advanced Video Codec
Профиль формата : High@L4.1
Параметр CABAC формата : Да
Параметр RefFrames формата : 4 кадра
Идентификатор кодека : V_MPEG4/ISO/AVC
Продолжительность : 1 ч. 29 м.
Вид битрейта : Переменный
Битрейт : 5074 Кбит/сек
Максимальный битрейт : 6000 Кбит/сек
Ширина : 1280 пикселей
Высота : 720 пикселей
Соотношение сторон : 16:9
Режим частоты кадров : Постоянный
Частота кадров : 23,976 (24000/1001) кадра/сек
Стандарт вещания : Component
Цветовое пространство : YUV
Субдискретизация насыщенности : 4:2:0
Битовая глубина : 8 бит
Тип развёртки : Прогрессивная
Бит/(Пиксели*Кадры) : 0.225
Размер потока : 3,10 Гбайт (91%)
Default : Да
Forced : Нет
Цветовой диапазон : Limited
Основные цвета : BT.709
Характеристики трансфера : BT.709
Коэффициенты матрицы : BT.709

Аудио
Идентификатор : 2
Формат : AC-3
Формат/Информация : Audio Coding 3
Расширение режима : CM (complete main)
Параметр Endianness формата : Big
Идентификатор кодека : A_AC3
Продолжительность : 1 ч. 29 м.
Вид битрейта : Постоянный
Битрейт : 384 Кбит/сек
Каналы : 2 канала
Расположение каналов : Front: L R
Частота : 48,0 КГц
Частота кадров : 31,250 кадров/сек (1536 spf)
Метод сжатия : С потерями
Размер потока : 245 Мбайт (7%)
Default : Да
Forced : Нет

pb.wtf



Скачать Диванная терапия через торрент https://c.radikal.ru/c07/1902/7a/d4c6a615b08a.jpg Скачать фильм Диванная терапия через торрент бесплантно в хорошем качестве Описание: Уважаемый семейный психолог Малка Стейн после консультации новой пары проблемных супругов вдруг понимает, что ее собственному ... 10 10 3
Торрент: Зарегистрирован [2019-02-24 19:45] · скачан: 24 раз
Статус: T временная
Размер: 3.4 GB
Как cкачать? Как скачать Диванная терапия через торрент | qTorrent

% Раздел Тема Автор DL S | L
T Фильмы (мультфильмы) cо спонсором показа (Новинки AVI/MKV) [ 1.37 GB ] Диванная терапия / O Amor no Divã [2016 WEB-DLRip] MVO ["Синема УС"] bober100 Скачать
1 | 0

28-11-2019 20:33  

Отключить всю рекламу на сайте


    Дорогой пользователь! Огромная просьба, поблагодарите релизера, оцените раздачу и оставьте свои комментарий, если Вы скачали Диванная терапия через торрент бесплатно! Внесите свою лепту в развитие PiratBit!
    Комментировать посты могут только пользователи прошедшие не сложную регистрацию
    Показать сообщения:    

    Диванная терапия через торрент
    Скачать бесплатно Диванная терапия
    Диванная терапия скачать торрент
    Диванная терапия смотреть онлайн
    Cкачать фильм Диванная терапия бесплатно
    Диванная терапия скачать торрент в хорошем качестве
    Диванная терапия смотреть онлайн бесплатно в хорошем качестве


    Вы не можете начинать темы
    Вы не можете отвечать на сообщения
    Вы не можете редактировать свои сообщения
    Вы не можете удалять свои сообщения
    Вы не можете голосовать в опросах
    Вы не можете прикреплять файлы к сообщениям
    Вы можете скачивать файлы