Присоединяйтесь к нам в Telegram!, здесь всегда актуальный адрес сайта, оперативная поддержка и многое другое!!

>

5.9

iTunes

7.4

iTunes

9.4

1 сезон

1

7.4

2 сезон

7.2

iTunes

7.3

1 сезон

13

6.1

iTunes

8.3

GOG

30

ULTIMATE

pack

9.9

Лицензия

ВАЖНО

ИГРА 18+

pack

7.3

RePack

MK11

7.7

RePack

jed

7.8

RePack

fifa19

8.5

RePack

RDR2

RePack

NEED FOR SPEED™ PAYBACK

5 сезон

9 сезон

Бесстыжие 9 сезон

Все сериалы

все сериалы на PB.wtf

RePack

FAR CRY 5

Anonymous, доброе утро, мы катастрофически не успеваем собрать деньги на оплату серверов, помогите нам пожалуйста 5,10,15р., для нас важна любая помощь . В качестве благодарности мы отключим Вам всю рекламу на сайте (укажите свой ник в строку Ваше имя)!

×
  
Magnet ссылка

Julio Iglesias - The Video Hits Collection [2016 г., Pop-latino, WEBRip, Оригинальный] pb.wtf

Julio Iglesias - The Video Hits Collection через торрент pb.wtf

Размер: 907 MB | Добавлен: 2 года 9 мес. назад | Торрент скачан:8 раз
Смотреть онлайн Julio Iglesias - The Video Hits Collection | Скачать    Ребята, помогите собрать деньги на оплату серверов!!!

24-02-2019 23:53 Julio Iglesias - The Video Hits Collection Скачать торрент  

Julio Iglesias - The Video Hits Collection

Исполнитель: Julio Iglesias
Год выпуска: 2016
Страна: Россия.MOM RecordsHD
Жанр: Pop-latino
Продолжительность: 01:15:17
Перевод: Оригинальный

О концерте: Хулио Иглесиас - является самым популярным испаноязычным исполнителем в мире. Певец известен как исполнением зажигательных песен в стиле латин-поп, так и душевных мелодических баллад, последние нередко Иглесиас исполнял в дуэтах с другими известными исполнителями. Хулио Иглесиас продал более 300 млн дисков, причем многие из них являются платиновыми и/или золотыми. Певец получил всемирную славу, дав более 5000 концертов «вживую» в более чем 600 городах по всему миру; лицо исполнителя появлялось в более 1700 обложках журналов, он был участником бесчисленного количества записей на телевидении. Хулио - своеобразный представитель международной народной дипломатии от музыки, записав музыкальные диски на 14 языках мира, в том числе и на родном испанском, а также французском, итальянском, португальском, английском, немецком и т. д., будучи единственным певцом, получивший бриллиантовую пластинку за исполнение песен на разных языках и по этому показателю даже попал в Книгу рекордов Гиннеса.
01. Amor
02. Manuela
03. A Veces Tú, A Veces Yo
04. El Amor
05. De Niña a Mujer
06. Et L' Amour Créa La Femme
07. Je N' Ai Pas Changé
08. Pauvres Diables
09. Un Jour Tu Ris, Un Jour Tu Pleures
10. L' Amour Est Fou, Madame
11. Nostalgie
12. Viens M' Embrasser
13. Medley
14. Quiereme
15. If I Ever Needed You (I Need You Now) 16. Crazy
17. Ae, Ao
18. Bamboleo
19. Milonga
20. Il Faut Toujours Un Perdant (feat Natasha St-Pier & Julie Zenatti)
21. Careless Whisper
Качество: WEBRip
Формат: AVI
Видео кодек: XviD
Аудио кодек: MP3
Видео: 704x400 (1.76:1), 23.976 fps, XviD build 65 ~1546 kbps avg, 0.23 bit/pixel
Аудио#1: 44.100 kHz, MPEG Layer 3, 2 ch, ~128.00 kbps avg
Общее
Полное имя : D:\torrent\novay zagruzka(dok)\Julio.Iglesias-The.Video.Hits.Collection.2016.XviD.WEBRip.avi
Формат : AVI
Формат/Информация : Audio Video Interleave
Размер файла : 907 Мбайт
Продолжительность : 1 ч. 15 м.
Общий поток : 1684 Кбит/сек
Программа кодирования : VirtualDubMod 1.5.10.3 | www.virtualdub-fr.org || (build 2550/release)
Библиотека кодирования : VirtualDub build 35491/release

Видео
Идентификатор : 0
Формат : MPEG-4 Visual
Профиль формата : Advanced Simple@L5
Настройки формата : BVOP2 / Custom Matrix
Параметр BVOP формата : 2
Параметр QPel формата : Нет
Параметр GMC формата : Без точки перехода
Параметр матрицы формата : Выборочная
Идентификатор кодека : XVID
Идентификатор кодека/Подсказка : XviD
Продолжительность : 1 ч. 15 м.
Битрейт : 1547 Кбит/сек
Ширина : 704 пикселя
Высота : 400 пикселей
Соотношение сторон : 16:9
Частота кадров : 23,976 (24000/1001) кадра/сек
Частота кадров в оригинале : 23,976 (23976/1000) кадра/сек
Цветовое пространство : YUV
Субдискретизация насыщенности : 4:2:0
Битовая глубина : 8 бит
Тип развёртки : Прогрессивная
Метод сжатия : С потерями
Бит/(Пиксели*Кадры) : 0.229
Размер потока : 833 Мбайт (92%)
Библиотека кодирования : XviD 65

Аудио
Идентификатор : 1
Формат : MPEG Audio
Версия формата : Version 1
Профиль формата : Layer 3
Настройки формата : Joint stereo
Идентификатор кодека : 55
Идентификатор кодека/Подсказка : MP3
Продолжительность : 1 ч. 15 м.
Вид битрейта : Постоянный
Битрейт : 128 Кбит/сек
Каналы : 2 канала
Частота : 44,1 КГц
Метод сжатия : С потерями
Задержка видео : 3 мс.
Размер потока : 68,9 Мбайт (8%)
Выравнивание : Разделение по промежуткам
Продолжительность промежутка : 42 мс. (1,00 видеокадр)
Время предзагрузки промежутка : 500 мс.

pb.wtf



Скачать Julio Iglesias - The Video Hits Collection через торрент https://pic1.kartinco.top/images/12/jk1rj.jpg Скачать, смотреть онлайн Julio Iglesias - The Video Hits Collection [2016 г., Pop-latino, WEBRip, Оригинальный] бесплантно в хорошем качестве Трэклист Amor Manuela A Veces Tú, A Veces Yo El Amor De Niña a Mujer Et L' Amour Créa La Femme Je N' Ai Pas ... 7 10 1
Торрент: Зарегистрирован [2019-02-24 23:53] · скачан: 8 раз
Статус: √ проверено
Размер: 907 MB
Как cкачать? Как скачать Julio Iglesias - The Video Hits Collection через торрент | UTorrent

28-11-2019 20:33  

Отключить всю рекламу на сайте

    Дорогой пользователь! Огромная просьба, поблагодарите релизера, оцените раздачу и оставьте свои комментарий, если Вы скачали Julio Iglesias - The Video Hits Collection через торрент бесплатно!
    Комментировать посты могут только пользователи прошедшие не сложную регистрацию
    Показать сообщения:    

    Julio Iglesias - The Video Hits Collection через торрент
    Скачать бесплатно Julio Iglesias - The Video Hits Collection
    Julio Iglesias - The Video Hits Collection скачать торрент
    Julio Iglesias - The Video Hits Collection смотреть онлайн
    Cкачать фильм Julio Iglesias - The Video Hits Collection бесплатно
    Julio Iglesias - The Video Hits Collection скачать торрент в хорошем качестве
    Julio Iglesias - The Video Hits Collection смотреть онлайн бесплатно в хорошем качестве


    Вы не можете начинать темы
    Вы не можете отвечать на сообщения
    Вы не можете редактировать свои сообщения
    Вы не можете удалять свои сообщения
    Вы не можете голосовать в опросах
    Вы не можете прикреплять файлы к сообщениям
    Вы можете скачивать файлы