Ссылка на приватное зеркало всего за 1$. Внимание количество ограничено!!!

iTunes

1+1

iTunes

мы

WEB-DL

1

iTunes

Чернобыль

iTunes

Ральф против интернета

Лицензия

ПШазам

Лицензия

Оно 2

Лицензия

30
pack

Вам бонус

ВАЖНО

!!Акция!!

Alien_RageХит недели

RePack

Resident Evil 21

ИГРА 18+

pack

RePack

jed

!!Акция!!

Alien_Rage

RePack

fifa19

RePack

Assassins Creed: Odyssey

RePack

NEED FOR SPEED™ PAYBACK

3 сезон

9 сезон

Бесстыжие 9 сезон

Все сериалы

все сериалы на PB.wtf

RePack

FAR CRY 5
Ребята, катастрофически не хватает 1900р. для оплаты серверов за Октябрь (всвязи с блокировками трафик упал в 3 раза), 1-2р., выручайте.
  

Зеленая книга / Green Book (Питер Фаррелли) [2018, комедия, драма, биография, WEB-DLRip-AVC] MVO [HDRezka studio] +DUB [iTunes] pb.wtf

Зеленая книга через торрент pb.wtf

Раздают: 1 [ 0 KB/s ]
Размер: 1.81 GB | Добавлен: 9 мес. назад | Торрент скачан:141 раз
Скачать  

25-02-2019 05:43 Зеленая книга Скачать торрент  

Зеленая книга / Green Book Год выпуска: 2018
Страна: США
Жанр: комедия, драма, биография
Продолжительность: 02:10:05
Перевод:

Дублированный | iTunes
Профессиональный многоголосый | HDRezka Studio

Субтитры: Русские (полные), английские (SDH)

Режиссер: Питер Фаррелли

rating

В ролях:

Вигго Мортенсен, Махершала Али, Линда Карделлини, Себастьян Манискалко, Димитар Маринов, Майк Хаттон, П.Дж. Бирн, Джозеф Кортезе, Мэгги Никсон, Фон Льюис

Описание:

Утонченный светский лев, богатый и талантливый музыкант нанимает в качестве водителя и телохранителя человека, который менее всего подходит для этой работы. Тони «Болтун» - вышибала, не умеющий держать рот на замке и пользоваться столовыми приборами, зато он хорошо работает кулаками. Это турне навсегда изменит жизнь обоих.

Качество: WEB-DLRip-AVC
Формат: MKV

Видео: 976x486 (2:1), 23,976 fps, x264 ~1 413 kbps avg, 0.124 bit/pixel
Аудио#1: 48 kHz, AC3 Dolby Digital, 3/2 (L,C,R,l,r) + LFE ch, ~384.00 kbps avg | RUS (iTunes)
Аудио#2: 48 kHz, AC3 Dolby Digital, 2 (L,R) ch, ~192.00 kbps avg | RUS (HDRezka Studio)
скриншот  скриншот  скриншот  скриншот  

Общее
Уникальный идентификатор : 243514439469142741156244656278644370730 (0xB7332CD276D8AC08564DE32A50BAAD2A)
Полное имя : F:OlLanDGroupGreen.Book.2018.WEB-DLRip(AVC).OlLanDGroup.mkv
Формат : Matroska
Версия формата : Version 4 / Version 2
Размер файла : 1,81 Гбайт
Продолжительность : 2 ч. 10 м.
Общий поток : 1989 Кбит/сек
Название фильма : Green.Book.2018 #TorpedoUK#
Дата кодирования : UTC 2019-02-25 04:31:28
Программа кодирования : mkvmerge v29.0.0 ('Like It Or Not') 64-bit
Библиотека кодирования : libebml v1.3.6 + libmatroska v1.4.9
Обложка : Yes
Attachments : cover1.png

Видео
Идентификатор : 1
Формат : AVC
Формат/Информация : Advanced Video Codec
Профиль формата : High@L4.1
Параметр CABAC формата : Да
Параметр ReFrames формата : 10 кадров
Идентификатор кодека : V_MPEG4/ISO/AVC
Продолжительность : 2 ч. 10 м.
Битрейт : 1413 Кбит/сек
Ширина : 976 пикселей
Высота : 486 пикселей
Соотношение сторон : 2,008
Режим частоты кадров : Постоянный
Частота кадров : 23,976 (24000/1001) кадра/сек
Цветовое пространство : YUV
Субдискретизация насыщенности : 4:2:0
Битовая глубина : 8 бит
Тип развёртки : Прогрессивная
Бит/(Пиксели*Кадры) : 0.124
Размер потока : 1,28 Гбайт (71%)
Библиотека кодирования : x264 core 146 r2538 121396c
Настройки программы : cabac=1 / ref=10 / deblock=1:-3:-3 / analyse=0x3:0x113 / me=umh / subme=10 / psy=1 / psy_rd=1.00:0.03 / mixed_ref=1 / me_range=48 / chroma_me=1 / trellis=2 / 8x8dct=1 / cqm=0 / deadzone=21,11 / fast_pskip=1 / chroma_qp_offset=-3 / threads=6 / lookahead_threads=1 / sliced_threads=0 / nr=0 / decimate=1 / interlaced=0 / bluray_compat=0 / constrained_intra=0 / bframes=11 / b_pyramid=2 / b_adapt=2 / b_bias=0 / direct=3 / weightb=1 / open_gop=0 / weightp=2 / keyint=240 / keyint_min=23 / scenecut=40 / intra_refresh=0 / rc_lookahead=40 / rc=2pass / mbtree=0 / bitrate=1413 / ratetol=1.0 / qcomp=0.60 / qpmin=0 / qpmax=69 / qpstep=4 / cplxblur=20.0 / qblur=0.5 / vbv_maxrate=50000 / vbv_bufsize=62500 / nal_hrd=none / filler=0 / ip_ratio=1.40 / pb_ratio=1.30 / aq=1:1.00
Default : Да
Forced : Нет

Аудио #1
Идентификатор : 2
Формат : AC-3
Формат/Информация : Audio Coding 3
Расширение режима : CM (complete main)
Параметр Endianness формата : Big
Идентификатор кодека : A_AC3
Продолжительность : 2 ч. 10 м.
Вид битрейта : Постоянный
Битрейт : 384 Кбит/сек
Каналы : 6 каналов
Расположение каналов : Front: L C R, Side: L R, LFE
Частота : 48,0 КГц
Частота кадров : 31,250 кадров/сек (1536 spf)
Битовая глубина : 16 бит
Метод сжатия : С потерями
Размер потока : 357 Мбайт (19%)
Заголовок : DUB [iTunes]
Язык : Russian
Default : Да
Forced : Нет

Аудио #2
Идентификатор : 3
Формат : AC-3
Формат/Информация : Audio Coding 3
Расширение режима : CM (complete main)
Параметр Endianness формата : Big
Идентификатор кодека : A_AC3
Продолжительность : 2 ч. 10 м.
Вид битрейта : Постоянный
Битрейт : 192 Кбит/сек
Каналы : 2 канала
Расположение каналов : Front: L R
Частота : 48,0 КГц
Частота кадров : 31,250 кадров/сек (1536 spf)
Битовая глубина : 16 бит
Метод сжатия : С потерями
Размер потока : 179 Мбайт (10%)
Заголовок : MVO [HDRezka Studio]
Язык : Russian
Default : Нет
Forced : Нет

Текст #1
Идентификатор : 4
Формат : UTF-8
Идентификатор кодека : S_TEXT/UTF8
Идентификатор кодека/Информация : UTF-8 Plain Text
Продолжительность : 2 ч. 1 м.
Битрейт : 101 бит/сек
Count of elements : 1413
Размер потока : 90,5 Кбайт (0%)
Заголовок : Full
Язык : Russian
Default : Нет
Forced : Нет

Текст #2
Идентификатор : 5
Формат : UTF-8
Идентификатор кодека : S_TEXT/UTF8
Идентификатор кодека/Информация : UTF-8 Plain Text
Продолжительность : 2 ч. 9 м.
Битрейт : 69 бит/сек
Count of elements : 2389
Размер потока : 66,4 Кбайт (0%)
Заголовок : SDH
Язык : English
Default : Нет
Forced : Нет

Меню
00:00:00.000 : en:1
00:05:44.010 : en:2
00:11:51.043 : en:3
00:18:18.805 : en:4
00:23:47.675 : en:5
00:28:38.381 : en:6
00:34:39.783 : en:7
00:41:14.302 : en:8
00:46:45.590 : en:9
00:54:20.169 : en:10
01:02:43.337 : en:11
01:10:43.649 : en:12
01:16:17.149 : en:13
01:24:31.267 : en:14
01:30:38.716 : en:15
01:36:54.258 : en:16
01:44:57.073 : en:17
01:51:13.115 : en:18
01:54:39.862 : en:19
02:02:26.494 : en:20

pb.wtf



Скачать Зеленая книга через торрент http://c.radikal.ru/c07/1902/47/62a071f7cf67.jpg Скачать фильм Зеленая книга через торрент бесплантно в хорошем качестве Описание: Утонченный светский лев, богатый и талантливый музыкант нанимает в качестве водителя и телохранителя человека, который менее ... 10 10 7
Торрент: Зарегистрирован [2019-02-25 05:43] · скачан: 141 раз
Статус: √ проверено
Размер: 1.81 GB
Как cкачать? Как скачать Зеленая книга через торрент | qTorrent

% Раздел Тема Автор DL S | L
Фильмы (WEB-DL 720p, 1080p) [ 5.65 GB ] Зеленая книга / Green Book [2018 биография WEB-DL 720p] [AMAZON] MVO [HDRezka Studio] + bober100 Скачать
5 | 0
Фильмы с авторской озвучкой [ 2.01 GB ] Зелёная книга / Green Book [2018 биография WEB-DLRip 1080p] [AVO] killermax2013 Скачать
1 | 0
Фильмы [HD 720p, 1080p] (Хороший звук DUB, MVO) [ 18.27 GB ] Зеленая книга / Green Book [2018 биография BDRip 1080p] MVO [HDRezka Studio] +DUB [] +AVO [Д.Есарев] bober100 Скачать
1 | 0
Ultra HD (UHD: 2K, 4K, 8K) — видео сверхвысокой чёткости [ 42.32 GB ] Зеленая книга / Green Book [2018 биография UHD BDRip 2160p] [SDR] DUB [Blu-ray CEE] + MVO [HDRezka Studio] sheker187 Скачать
1 | 0
Ultra HD (UHD: 2K, 4K, 8K) — видео сверхвысокой чёткости [ 54.23 GB ] Зеленая книга / Green Book [2018 биография UHD BDRemux 2160p] DUB [] + MVO [HDRezka Studio] sheker187 Скачать
1 | 0
Ultra HD (UHD: 2K, 4K, 8K) — видео сверхвысокой чёткости [ 63.36 GB ] Зеленая книга / Green Book [2018 биография UHD Blu-ray 2160p] DUB [] sheker187 Скачать
1 | 0
Фильмы (WEB-DL 720p, 1080p) [ 9.5 GB ] Зеленая книга / Green Book [2018 биография WEB-DL 1080p] [AMAZON] MVO [HDRezka Studio] + bober100 Скачать
8 | 0

28-11-2019 20:33  

Отключить всю рекламу на сайте

    Дорогой пользователь! Огромная просьба, поблагодарите релизера, оцените раздачу и оставьте свои комментарий, если Вы скачали Зеленая книга через торрент бесплатно! Внесите свою лепту в развитие PiratBit!
    Комментировать посты могут только пользователи прошедшие не сложную регистрацию
    Показать сообщения:    

    Зеленая книга через торрент
    Скачать бесплатно Зеленая книга
    Зеленая книга скачать торрент
    Зеленая книга смотреть онлайн
    Cкачать фильм Зеленая книга бесплатно
    Зеленая книга скачать торрент в хорошем качестве
    Зеленая книга смотреть онлайн бесплатно в хорошем качестве


    Вы не можете начинать темы
    Вы не можете отвечать на сообщения
    Вы не можете редактировать свои сообщения
    Вы не можете удалять свои сообщения
    Вы не можете голосовать в опросах
    Вы не можете прикреплять файлы к сообщениям
    Вы можете скачивать файлы