Ссылка на приватное зеркало всего за 1$. Внимание количество ограничено!!!

iTunes

iTunes

iTunes

1

iTunes

iTunes

iTunes

WEBRip

iTunes

30
pack

$ от Little Big

ВАЖНО

!!Акция!!

Alien_RageХит недели

RePack

Resident Evil 21

ИГРА 18+

pack

RePack

jed

!!Акция!!

Alien_Rage

RePack

fifa19

RePack

Assassins Creed: Odyssey

RePack

NEED FOR SPEED™ PAYBACK

4 сезон

9 сезон

Бесстыжие 9 сезон

Все сериалы

все сериалы на PB.wtf

RePack

FAR CRY 5
  

Отель Инферно: Храм боли / Hotel Inferno 2: The Cathedral of Pain (Джулио Де Санти, Тициана Машелла) [2017, ужасы, боевик, BDRip 720p] MVO ["Синема УС"] pb.wtf

Отель Инферно: Храм боли через торрент pb.wtf

Размер: 3.2 GB | Добавлен: 1 год 5 мес. назад | Торрент скачан:193 раза
Скачать  

25-02-2019 07:05 Отель Инферно: Храм боли Скачать торрент  

Отель Инферно: Храм боли / Hotel Inferno 2: The Cathedral of Pain Год выпуска: 2017
Страна: Италия
Жанр: ужасы, боевик
Продолжительность: 01:11:07
Перевод: Любительский (многоголосый) | "Синема УС"
Субтитры: отсутствуют

Режиссер: Джулио Де Санти, Тициана Машелла

rating

В ролях:

Рэйнер Буртон, Роланд Стоун, Джейд Мэттью, Майкл Хоу, Вилмар Зимоза, Кристиан Коррадетти, Кристиан Рива, Энрике Соррес, Сантьяго Ортаес, Марко Обов

Описание:

Наёмный убийца Фрэнк Зимоза во время выполнения очередного заказа находит ворота в Преисподнюю. Оказавшись в Аду среди демонов и терзаемых ими душ, он отчаянно ищет выход. Его помощницей становится древняя ведьма, сожжённая на костре в незапамятные времена. Руководствуясь советами проклятой души, Фрэнк отыскивает один за другим ключи от всё новых и новых инфернальных уровней, не зная, приближает его очередная схватка к заветному выходу или наоборот - отдаляет от него.

Качество: BDRip 720p
Формат: MKV

Видео: h.264, 5 997 Кбит/с, 1280x720
Аудио#1: Русский (AC3, 2 ch, 448 Кбит/с)
скриншот  скриншот  скриншот  

Общее
Уникальный идентификатор : 228895093062671714302588449652524397328 (0xAC339765066B1068B71C5B8E2C233310)
Полное имя : D:\Hotel.Inferno.2.The.Cathedral.of.Pain.2O17.P.BDRip.72Op.mkv
Формат : Matroska
Версия формата : Version 2
Размер файла : 3,20 Гбайт
Продолжительность : 1 ч. 11 м.
Режим общего битрейта : Переменный
Общий поток : 6447 Кбит/сек
Дата кодирования : UTC 2019-02-21 11:44:49
Программа кодирования : mkvmerge v8.3.0 ('Over the Horizon') 64bit
Библиотека кодирования : libebml v1.3.1 + libmatroska v1.4.2

Видео
Идентификатор : 1
Формат : AVC
Формат/Информация : Advanced Video Codec
Профиль формата : High@L4.1
Параметр CABAC формата : Да
Параметр RefFrames формата : 4 кадра
Идентификатор кодека : V_MPEG4/ISO/AVC
Продолжительность : 1 ч. 11 м.
Вид битрейта : Переменный
Битрейт : 5997 Кбит/сек
Максимальный битрейт : 6800 Кбит/сек
Ширина : 1280 пикселей
Высота : 720 пикселей
Соотношение сторон : 16:9
Режим частоты кадров : Постоянный
Частота кадров : 23,976 (24000/1001) кадра/сек
Стандарт вещания : Component
Цветовое пространство : YUV
Субдискретизация насыщенности : 4:2:0
Битовая глубина : 8 бит
Тип развёртки : Прогрессивная
Бит/(Пиксели*Кадры) : 0.266
Размер потока : 2,92 Гбайт (91%)
Default : Да
Forced : Нет
Цветовой диапазон : Limited
Основные цвета : BT.709
Характеристики трансфера : BT.709
Коэффициенты матрицы : BT.709

Аудио
Идентификатор : 2
Формат : AC-3
Формат/Информация : Audio Coding 3
Расширение режима : CM (complete main)
Параметр Endianness формата : Big
Идентификатор кодека : A_AC3
Продолжительность : 1 ч. 11 м.
Вид битрейта : Постоянный
Битрейт : 448 Кбит/сек
Каналы : 2 канала
Расположение каналов : Front: L R
Частота : 48,0 КГц
Частота кадров : 31,250 кадров/сек (1536 spf)
Метод сжатия : С потерями
Размер потока : 228 Мбайт (7%)
Default : Да
Forced : Нет

pb.wtf



Скачать Отель Инферно: Храм боли через торрент https://d.radikal.ru/d05/1902/e7/7340f1e1116a.jpg Скачать фильм Отель Инферно: Храм боли через торрент бесплантно в хорошем качестве Описание: Наёмный убийца Фрэнк Зимоза во время выполнения очередного заказа находит ворота в Преисподнюю. Оказавшись в Аду среди демонов и ... 10 10 6
Торрент: Зарегистрирован [2019-02-25 07:05] · скачан: 193 раз
Статус: # сомнительно
Размер: 3.2 GB
Как cкачать? Как скачать Отель Инферно: Храм боли через торрент | qTorrent

% Раздел Тема Автор DL S | L
T Фильмы (мультфильмы) cо спонсором показа (Новинки AVI/MKV) [ 1.37 GB ] Отель Инферно: Храм боли / Hotel Inferno 2: The Cathedral of Pain [2017 HDRip] MVO ["Синема УС"] bober100 Скачать
2 | 0

28-11-2019 20:33  

Отключить всю рекламу на сайте

    Дорогой пользователь! Огромная просьба, поблагодарите релизера, оцените раздачу и оставьте свои комментарий, если Вы скачали Отель Инферно: Храм боли через торрент бесплатно! Внесите свою лепту в развитие PiratBit!
    Комментировать посты могут только пользователи прошедшие не сложную регистрацию
    Показать сообщения:    

    Отель Инферно: Храм боли через торрент
    Скачать бесплатно Отель Инферно: Храм боли
    Отель Инферно: Храм боли скачать торрент
    Отель Инферно: Храм боли смотреть онлайн
    Cкачать фильм Отель Инферно: Храм боли бесплатно
    Отель Инферно: Храм боли скачать торрент в хорошем качестве
    Отель Инферно: Храм боли смотреть онлайн бесплатно в хорошем качестве


    Вы не можете начинать темы
    Вы не можете отвечать на сообщения
    Вы не можете редактировать свои сообщения
    Вы не можете удалять свои сообщения
    Вы не можете голосовать в опросах
    Вы не можете прикреплять файлы к сообщениям
    Вы можете скачивать файлы