Ссылка на приватное зеркало нашего сайта всего за 1$. Внимание количество ограничено!!!

2 сезон

iTunes

1 сезон

1

iTunes

iTunes

iTunes

1 сезон

RePack

30

ИГРА 18+

pack

ВАЖНО

!!Акция!!

Alien_RageХит недели

RePack

MK11
pack

Забери бонус

RePack

jed

!!Акция!!

Alien_Rage

RePack

fifa19

RePack

Assassins Creed: Odyssey

RePack

NEED FOR SPEED™ PAYBACK

4 сезон

9 сезон

Бесстыжие 9 сезон

Все сериалы

все сериалы на PB.wtf

RePack

FAR CRY 5
  

Сыщик / Sleuth (Кеннет Брэна / Kenneth Branagh) [2007, США, Триллер, драма, детектив, BDRip 720p] pb.wtf

Сыщик через торрент pb.wtf

Размер: 4.68 GB | Добавлен: 9 лет 9 мес. назад | Торрент скачан:124 раза
Скачать  

05-01-2011 16:51 Сыщик Скачать торрент  

Сыщик / Sleuth«Obey the rules.»
Год выпуска: 2007
Страна: США
Жанр: Триллер, драма, детектив
Продолжительность: 01:28:41

  • Перевод: Профессиональный (дублированный) + Авторский Ю.Сербин + Оригинал + Commentary
  • Cубтитры: Russian, English

Режиссер: Кеннет Брэна / Kenneth Branagh
В ролях: Майкл Кейн, Джуд Лоу, Гарольд Пинтер, Кармел О’Салливан, Роли дублировали:, Денис БеспалыйБрук
Описание: Преуспевающий автор детективных романов Эндрю Уайк приглашает к себе в гости Майло Тиндла, любовника своей жены. Тот прибывает в роскошный особняк писателя, где получает неожиданное предложение. Сэр Эндрю знает об их связи и даже готов отпустить жену, но на определённых условиях. Хитроумный план включает в себя инсценировку ограбления, махинации со страховкой и весьма пикантные ситуации, что в результате должно обеспечить всем безбедное существование. Писатель и гость вступают в рискованную игру, но ещё неизвестно, кто выйдет из неё победителем.

  • Качество: BDRip | | Формат: MKV
  • Видео кодек: h.264 | Аудио кодек: AC-3
  • Видео: 1280x546 at 23.976 fps, x264@L4.1, crf, ~5817 kbps avg
  • Аудио 1: Russian: 48 kHz, AC3, 3/2 (L,C,R,l,r) + LFE ch, ~448.00 kbps avg |Дубляж|
  • Аудио 2: Russian: 48 kHz, AC3, 3/2 (L,C,R,l,r) + LFE ch, ~448.00 kbps avg |Одноголосый закадровый, Ю.Сербин|
  • Аудио 3: English: 48 kHz, AC3, 3/2 (L,C,R,l,r) + LFE ch, ~448.00 kbps avg
  • Аудио 4: English: 48 kHz, AC3, 2/0 (L,R) ch, ~192.00 kbps avg |Commentary #1|
  • Аудио 5: English: 48 kHz, AC3, 2/0 (L,R) ch, ~192.00 kbps avg |Commentary #2|
  • Cубтитры 1: Русские, Английские
  • Сэмпл:Скачать

General
Complete name : K:\Кино\Sleuth.2007.720p.BluRay.2xRus.Eng.mkv
Format : Matroska
File size : 4.68 GiB
Duration : 1h 28mn
Overall bit rate : 7 548 Kbps
Movie name : Sleuth (2007) - Release for HDCLUB
Encoded date : UTC 2010-12-31 13:08:01
Writing application : mkvmerge v4.4.0 ('Die Wiederkehr') сборка от Oct 31 2010 21:52:48
Writing library : libebml v1.0.0 + libmatroska v1.0.0

Video
ID : 1
Format : AVC
Format/Info : Advanced Video Codec
Format profile : High@L4.1
Format settings, CABAC : Yes
Format settings, ReFrames : 7 frames
Codec ID : V_MPEG4/ISO/AVC
Duration : 1h 28mn
Bit rate : 5 670 Kbps
Width : 1 280 pixels
Height : 546 pixels
Display aspect ratio : 2.35:1
Frame rate : 23.976 fps
Color space : YUV
Chroma subsampling : 4:2:0
Bit depth : 8 bits
Scan type : Progressive
Bits/(Pixel*Frame) : 0.338
Stream size : 3.51 GiB (75%)
Title : Sleuth (2007) - Release for HDCLUB
Writing library : x264 core 112 r1834 a51816a
Encoding settings : cabac=1 / ref=7 / deblock=1:-3:-3 / analyse=0x3:0x113 / me=umh / subme=10 / psy=1 / psy_rd=1.05:0.10 / mixed_ref=1 / me_range=64 / chroma_me=1 / trellis=2 / 8x8dct=1 / cqm=0 / deadzone=21,11 / fast_pskip=0 / chroma_qp_offset=-3 / threads=6 / sliced_threads=0 / nr=0 / decimate=1 / interlaced=0 / constrained_intra=0 / bframes=8 / b_pyramid=2 / b_adapt=2 / b_bias=0 / direct=1 / weightb=1 / open_gop=0 / weightp=2 / keyint=250 / keyint_min=23 / scenecut=40 / intra_refresh=0 / rc_lookahead=60 / rc=crf / mbtree=0 / crf=16.7 / qcomp=0.60 / qpmin=10 / qpmax=51 / qpstep=4 / vbv_maxrate=50000 / vbv_bufsize=62500 / crf_max=0.0 / ip_ratio=1.40 / pb_ratio=1.30 / aq=1:0.80 / nal_hrd=none
Language : English

Audio #1
ID : 2
Format : AC-3
Format/Info : Audio Coding 3
Mode extension : CM (complete main)
Codec ID : A_AC3
Duration : 1h 28mn
Bit rate mode : Constant
Bit rate : 448 Kbps
Channel(s) : 6 channels
Channel positions : Front: L C R, Side: L R, LFE
Sampling rate : 48.0 KHz
Bit depth : 16 bits
Stream size : 284 MiB (6%)
Title : AC3 5.1ch 448 kbps - Дубляж
Language : Russian

Audio #2
ID : 3
Format : AC-3
Format/Info : Audio Coding 3
Mode extension : CM (complete main)
Codec ID : A_AC3
Duration : 1h 28mn
Bit rate mode : Constant
Bit rate : 448 Kbps
Channel(s) : 6 channels
Channel positions : Front: L C R, Side: L R, LFE
Sampling rate : 48.0 KHz
Bit depth : 16 bits
Stream size : 284 MiB (6%)
Title : AC3 5.1ch 448 kbps - Одноголосый, Ю.Сербин
Language : Russian

Audio #3
ID : 4
Format : AC-3
Format/Info : Audio Coding 3
Mode extension : CM (complete main)
Codec ID : A_AC3
Duration : 1h 28mn
Bit rate mode : Constant
Bit rate : 448 Kbps
Channel(s) : 6 channels
Channel positions : Front: L C R, Side: L R, LFE
Sampling rate : 48.0 KHz
Bit depth : 16 bits
Stream size : 284 MiB (6%)
Title : AC3 5.1ch 448 kbps
Language : English

Audio #4
ID : 5
Format : AC-3
Format/Info : Audio Coding 3
Format profile : Dolby Digital
Mode extension : CM (complete main)
Codec ID : A_AC3
Duration : 1h 28mn
Bit rate mode : Constant
Bit rate : 192 Kbps
Channel(s) : 2 channels
Channel positions : Front: L R
Sampling rate : 48.0 KHz
Bit depth : 16 bits
Stream size : 122 MiB (3%)
Title : AC3 2.0ch 192 kbps - Commentary #1
Language : English

Audio #5
ID : 6
Format : AC-3
Format/Info : Audio Coding 3
Format profile : Dolby Digital
Mode extension : CM (complete main)
Codec ID : A_AC3
Duration : 1h 28mn
Bit rate mode : Constant
Bit rate : 192 Kbps
Channel(s) : 2 channels
Channel positions : Front: L R
Sampling rate : 48.0 KHz
Bit depth : 16 bits
Stream size : 122 MiB (3%)
Title : AC3 2.0ch 192 kbps - Commentary #2
Language : English

Text #1
ID : 7
Format : UTF-8
Codec ID : S_TEXT/UTF8
Codec ID/Info : UTF-8 Plain Text
Language : Russian

Text #2
ID : 8
Format : UTF-8
Codec ID : S_TEXT/UTF8
Codec ID/Info : UTF-8 Plain Text
Language : English

Menu
00:00:00.000 : en:1.
00:07:25.111 : en:2.
00:10:02.435 : en:3.
00:15:29.971 : en:4.
00:20:37.611 : en:5.
00:24:59.331 : en:6.
00:30:02.968 : en:7.
00:36:00.909 : en:8.
00:38:35.939 : en:9.
00:44:53.524 : en:10.
00:51:30.713 : en:11.
00:56:30.554 : en:12.
01:04:19.981 : en:13.
01:09:15.360 : en:14.
01:15:16.470 : en:15.
01:20:47.092 : en:16.

  • Данная картина является римейком фильма «Игра навылет» (1972).
  • Примечательно то, что Майкл Кейн учавствовал и в старой версии фильма. Там он играл молодого любовника жены главного героя. В римейке Кейн исполнил роль «обманутого мужа».
  • В фильме Эндрю Уайк часто принимает Майло Тиндла за парикмахера. В оригинальном фильме 1972 года Майло был парикмахером, а не актером

pb.wtf



Скачать Сыщик через торрент http://i4.imageban.ru/out/2011/01/05/e78690378457c2d16680c3f4ff1ae9f1.jpg Скачать фильм Сыщик через торрент бесплантно в хорошем качестве Описание: Преуспевающий автор детективных романов Эндрю Уайк приглашает к себе в гости Майло Тиндла, любовника своей жены. Тот прибывает в ... 5 10 3
Info! Золотая раздача, скачанное не засчитывается.
Торрент: Зарегистрирован [2011-01-05 16:51] · скачан: 124 раз
Статус: √ проверено
Размер: 4.68 GB
Как cкачать? Как скачать Сыщик через торрент | qTorrent

% Раздел Тема Автор DL S | L
Фильмы 2006-2008 [ 2.66 GB ] Сыщик / Sleuth [2007 BDRip-AVC] DUB _KaisiK_ Скачать
1 | 0
Фильмы 2006-2008 [ 1.45 GB ] Сыщик / Sleuth [2007 HDRip DUB лицензия] lev1244v Скачать
1 | 0
Фильмы 2006-2008 [ 1.62 GB ] Сыщик / Sleuth [2007 ... DVDRip лицензия] kuvagen Скачать
1 | 0

28-11-2019 20:33  

Отключить всю рекламу на сайте

06-01-2011 12:05 Сыщик Скачать торрент  

Знатный фильм.pb.wtf



    Дорогой пользователь! Огромная просьба, поблагодарите релизера, оцените раздачу и оставьте свои комментарий, если Вы скачали Сыщик через торрент бесплатно! Внесите свою лепту в развитие PiratBit!
    Комментировать посты могут только пользователи прошедшие не сложную регистрацию
    Показать сообщения:    

    Сыщик через торрент
    Скачать бесплатно Сыщик
    Сыщик скачать торрент
    Сыщик смотреть онлайн
    Cкачать фильм Сыщик бесплатно
    Сыщик скачать торрент в хорошем качестве
    Сыщик смотреть онлайн бесплатно в хорошем качестве


    Вы не можете начинать темы
    Вы не можете отвечать на сообщения
    Вы не можете редактировать свои сообщения
    Вы не можете удалять свои сообщения
    Вы не можете голосовать в опросах
    Вы не можете прикреплять файлы к сообщениям
    Вы можете скачивать файлы