новый адрес
Мега распродажа FORZA HORIZON 4 ULTIMATE+ВСЕ DLC+ОНЛАЙН всего за 499р. 349 руб. (супер цена). Внимание количество ограничено!!!

iTunes

1+1

iTunes

мы

iTunes

1

iTunes

Чернобыль

iTunes

Ральф против интернета

Лицензия

ПШазам

Лицензия

Оно 2

Лицензия

30
pack

ВАЖНО

!!Акция!!

Alien_RageХит недели

RePack

Resident Evil 21

ИГРА 18+

pack

RePack

Metro:Exodus

!!Акция!!

Alien_Rage

RePack

fifa19

RePack

Assassins Creed: Odyssey

RePack

NEED FOR SPEED™ PAYBACK

3 сезон

9 сезон

Бесстыжие 9 сезон

Все сериалы

все сериалы на PB.wtf

RePack

FAR CRY 5
Ребята, катастрофически не хватает 1900р. для оплаты серверов за Октябрь (всвязи с блокировками трафик упал в 3 раза), 1-2р., выручайте.
  

Смотрите - небо! (Элем Климов) [1962, СССР, короткометражка, детский, SATRip-AVC от AVP Studio] pb.wtf

Смотрите - небо! через торрент pb.wtf

Размер: 372 MB | Добавлен: 8 мес. назад | Торрент скачан:5 раз
Скачать  

25-02-2019 08:55 Смотрите - небо! Скачать торрент  

Смотрите - небо!
Страна: СССР
Производство: ВГИК

Жанр: короткометражка, детский
Год выпуска: 1962
Продолжительность: 00:31:16

Перевод: Не требуется
Cубтитры: нет
Оригинальная аудиодорожка: русский

Режиссер: Элем Климов

В ролях:
Николай Кодин, Серёжа Кокорев, Юрий Чумаков, Наташа Чечёткина, Андрей Фридман, Александр Портнягин, Олег Ионов, Александра Попова, Владимир Лебедев, Борис Чукаев, Илья Рутберг, Лев Круглый...
Об актёрах подробней

Описание:
Преддипломная работа Э. Климова.
На среду запланирован старт космической ракеты. В сарае идут последние приготовления. Юля, Боря и Петя ждут Мишку – он достал мотор и право первого полета принадлежит ему. Но Мишка остыл к этой затее – гораздо интереснее играть в море. Да и на месте сарая вот-вот должны воздвигнуть гараж. Единственный, кто не может смириться с отменой полета – карапуз Алька. Рано утром он влезает в космический корабль и нажимает кнопку «Старт»…

Исходник: DVB
Качество видео: SATRip-AVC
Формат видео: MKV

Видео: 696->733x550 (4:3), 25,000 кадров/сек, H264 ~ 1471 kbps avg, 0.154 bit/pixel
Аудио: 48 kHz, Dolby Digital AC3 2.0, 192 kbps

Раздача от:
Общее
Полное имя : Smotrite-nebo!1962.SATRip-AVC_[New-team]_by_AVP_Studio.mkv
Формат : Matroska
Версия формата : Version 2
Размер файла : 372 Мбайт
Продолжительность : 31 м. 15 с.
Общий поток : 1665 Кбит/сек
Дата кодирования : UTC 2019-02-24 12:50:10
Программа кодирования : mkvmerge v6.1.0 ('Old Devil') built on Mar 4 2013 09:10:42
Библиотека кодирования : libebml v1.3.0 + libmatroska v1.4.0

Видео
Идентификатор : 1
Формат : AVC
Формат/Информация : Advanced Video Codec
Профиль формата : High@L4.1
Настройки формата : CABAC / 10 Ref Frames
Параметр CABAC формата : Да
Параметр RefFrames формата : 10 кадров
Идентификатор кодека : V_MPEG4/ISO/AVC
Продолжительность : 31 м. 15 с.
Битрейт : 1471 Кбит/сек
Ширина : 696 пикселей
Высота : 550 пикселей
Соотношение сторон : 4:3
Режим частоты кадров : Постоянный
Частота кадров : 25,000 кадров/сек
Цветовое пространство : YUV
Субдискретизация насыщенности : 4:2:0
Битовая глубина : 8 бит
Тип развёртки : Прогрессивная
Бит/(Пиксели*Кадры) : 0.154
Размер потока : 322 Мбайт (86%)
Библиотека кодирования : x264 core 157 r2935 545de2f
Настройки программы : cabac=1 / ref=10 / deblock=1:-2:-1 / analyse=0x3:0x113 / me=umh / subme=10 / psy=1 / psy_rd=1.00:0.00 / mixed_ref=1 / me_range=32 / chroma_me=1 / trellis=2 / 8x8dct=1 / cqm=0 / deadzone=21,11 / fast_pskip=1 / chroma_qp_offset=-2 / threads=6 / lookahead_threads=1 / sliced_threads=0 / nr=0 / decimate=0 / interlaced=0 / bluray_compat=0 / constrained_intra=0 / bframes=8 / b_pyramid=2 / b_adapt=2 / b_bias=0 / direct=3 / weightb=1 / open_gop=0 / weightp=2 / keyint=250 / keyint_min=25 / scenecut=40 / intra_refresh=0 / rc=2pass / mbtree=0 / bitrate=1471 / ratetol=1.0 / qcomp=0.60 / qpmin=0 / qpmax=69 / qpstep=4 / cplxblur=20.0 / qblur=0.5 / ip_ratio=1.40 / pb_ratio=1.30 / aq=1:1.00
Default : Да
Forced : Нет

Аудио
Идентификатор : 2
Формат : AC-3
Формат/Информация : Audio Coding 3
Коммерческое название : Dolby Digital
Идентификатор кодека : A_AC3
Продолжительность : 31 м. 15 с.
Вид битрейта : Постоянный
Битрейт : 192 Кбит/сек
Каналы : 2 канала
Channel layout : L R
Частота : 48,0 КГц
Частота кадров : 31,250 кадров/сек (1536 SPF)
Битовая глубина : 16 бит
Метод сжатия : С потерями
Размер потока : 42,9 Мбайт (12%)
Default : Да
Forced : Нет
pb.wtf



Скачать Смотрите - небо! через торрент http://picplus.ru/img/1902/25/200feaf2.png Скачать фильм Смотрите - небо! через торрент бесплантно в хорошем качестве Описание:Преддипломная работа Э. Климова.На среду запланирован старт космической ракеты. В сарае идут последние приготовления. Юля, Боря и ... 5 10 1
Торрент: Зарегистрирован [2019-02-25 08:55] · скачан: 5 раз
Статус: √ проверено
Размер: 372 MB
Как cкачать? Как скачать Смотрите - небо! через торрент | qTorrent

% Раздел Тема Автор DL S | L
Кино СССР [ 372 MB ] Смотрите - небо! [1962 СССР короткометражка детский SATRip от AVP Studio] AVP Studio Скачать
1 | 0
T Фильмы (мультфильмы) cо спонсором показа (Новинки AVI/MKV) [ 1.31 GB ] Смотри в Небо / Watch the Sky [2018 WEB-DLRip Любительский ] oleg8 Скачать
1 | 0
Отечественная Поп музыка (сборники) (mp3) [ 691 MB ] VA - Смотришь в небо 2016 / MP3 / 256 kbps / pop den7z8 Скачать
1 | 0


>> Регистрируемся здесь <<






Отзывы и комментарии о схеме читаем и пишем здесь: ---> Отзывы и комментарии о схеме

Новые благодарочки в телеграм довольных пользователей:
скриншот   скриншот   скриншот   скриншот   скриншот
    Дорогой пользователь! Огромная просьба, поблагодарите релизера, оцените раздачу и оставьте свои комментарий, если Вы скачали Смотрите - небо! через торрент бесплатно! Внесите свою лепту в развитие PiratBit!
    Комментировать посты могут только пользователи прошедшие не сложную регистрацию
    Показать сообщения:    

    Смотрите - небо! через торрент
    Скачать бесплатно Смотрите - небо!
    Смотрите - небо! скачать торрент
    Смотрите - небо! смотреть онлайн
    Cкачать фильм Смотрите - небо! бесплатно
    Смотрите - небо! скачать торрент в хорошем качестве
    Смотрите - небо! смотреть онлайн бесплатно в хорошем качестве


    Вы не можете начинать темы
    Вы не можете отвечать на сообщения
    Вы не можете редактировать свои сообщения
    Вы не можете удалять свои сообщения
    Вы не можете голосовать в опросах
    Вы не можете прикреплять файлы к сообщениям
    Вы можете скачивать файлы