Ссылка на приватное зеркало нашего сайта всего за 1$. Внимание количество ограничено!!!

2 сезон

iTunes

1 сезон

1

iTunes

iTunes

iTunes

1 сезон

RePack

30

ИГРА 18+

pack

ВАЖНО

!!Акция!!

Alien_RageХит недели

RePack

MK11
pack

Забери бонус

RePack

jed

!!Акция!!

Alien_Rage

RePack

fifa19

RePack

Assassins Creed: Odyssey

RePack

NEED FOR SPEED™ PAYBACK

4 сезон

9 сезон

Бесстыжие 9 сезон

Все сериалы

все сериалы на PB.wtf

RePack

FAR CRY 5
  

Шаг к счастью /Сезон : 1 / Серии :1-4 из 4 (Алексей Праздников) [2019 г., детектив, криминал, мелодрама, WEBRip 1080p] pb.wtf

Шаг к счастью через торрент pb.wtf

Размер: 3.38 GB | Добавлен: 1 год 7 мес. назад | Торрент скачан:51 раз
Скачать  

25-02-2019 09:07 Шаг к счастью Скачать торрент  


Год выпуска: 2019
Страна: Россия
Жанр: детектив, криминал, мелодрама
Продолжительность: 4 х ~00:47:00
Субтитры: Отсутствуют

Режиссер: Алексей Праздников

В ролях: Кристина Кузьмина, Алексей Барабаш, Роман Агеев, Алиса Миронова, Анна Алексахина, Евгения Игумнова, Денис Пьянов, Иван Федорук, Илья Шакунов, Андрей Носков, Артур Ваха и др.

Описание: Журналист Настя Жукова давно ведет свое расследование, пытаясь разоблачить беспощадного и нечистого на руку бывшего мужа Сергея Остренко. Но едва узнав, что помимо махинаций в бизнесе он виновен еще в гибели пожилого человека, которого сбил на дороге, Настя сама оказывается в ловушке. Она прилюдно обещает Остренко во чтобы то ни стало доказать его вину, но в этот же момент ее саму арестовывают по сфабрикованному обвинению.

Качество: WEBRip 1080p
Формат: MKV
Видео кодек: H.264
Аудио кодек: AC3
Видео: AVC/H.264, 1920x1080 (16:9), ~2565 Kbps
Аудио#1: AC3, 2 ch, 192 Kbps
скриншот   скриншот   скриншот   скриншот  

Общее
Уникальный идентификатор : 49359262935253862703945518805374310036 (0x25223F8D713D3EB4787C80134A259694)
Полное имя : G:\Шаг к счастью (2019).by.Алехаndr\Серии 1-2.by.Алехаndr.mkv
Формат : Matroska
Версия формата : Version 4
Размер файла : 1,72 Гбайт
Продолжительность : 1 ч. 27 м.
Общий поток : 2814 Кбит/сек
Программа кодирования : Lavf57.71.100
Библиотека кодирования : Lavf57.71.100
ErrorDetectionType : Per level 1

Видео
Идентификатор : 1
Формат : AVC
Формат/Информация : Advanced Video Codec
Профиль формата : High@L4
Настройки формата : CABAC / 3 Ref Frames
Параметр CABAC формата : Да
Параметр RefFrames формата : 3 кадра
Идентификатор кодека : V_MPEG4/ISO/AVC
Продолжительность : 1 ч. 27 м.
Битрейт : 2566 Кбит/сек
Ширина : 1920 пикселей
Высота : 1080 пикселей
Соотношение сторон : 16:9
Режим частоты кадров : Постоянный
Частота кадров : 25,000 кадров/сек
Цветовое пространство : YUV
Субдискретизация насыщенности : 4:2:0
Битовая глубина : 8 бит
Тип развёртки : Прогрессивная
Бит/(Пиксели*Кадры) : 0.049
Размер потока : 1,57 Гбайт (91%)
Default : Да
Forced : Нет
Цветовой диапазон : Limited
Основные цвета : BT.709
Характеристики трансфера : BT.709
Коэффициенты матрицы : BT.709

Аудио
Идентификатор : 2
Формат : AC-3
Формат/Информация : Audio Coding 3
Коммерческое название : Dolby Digital
Идентификатор кодека : A_AC3
Продолжительность : 1 ч. 27 м.
Вид битрейта : Постоянный
Битрейт : 192 Кбит/сек
Каналы : 2 канала
Channel layout : L R
Частота : 48,0 КГц
Частота кадров : 31,250 кадров/сек (1536 SPF)
Битовая глубина : 16 бит
Метод сжатия : С потерями
Размер потока : 120 Мбайт (7%)
ServiceKind/String : Complete Main
Default : Да
Forced : Нет

pb.wtf



Скачать Шаг к счастью через торрент http://pic1.kartinco.top/images/12/dpfm4.jpg Скачать фильм Шаг к счастью через торрент бесплантно в хорошем качестве Описание: Журналист Настя Жукова давно ведет свое расследование, пытаясь разоблачить беспощадного и нечистого на руку бывшего мужа Сергея ... 9.5 10 2
Торрент: Зарегистрирован [2019-02-25 09:07] · скачан: 51 раз
Статус: √ проверено
Размер: 3.38 GB
Как cкачать? Как скачать Шаг к счастью через торрент | qTorrent

28-11-2019 20:33  

Отключить всю рекламу на сайте

    Дорогой пользователь! Огромная просьба, поблагодарите релизера, оцените раздачу и оставьте свои комментарий, если Вы скачали Шаг к счастью через торрент бесплатно! Внесите свою лепту в развитие PiratBit!
    Комментировать посты могут только пользователи прошедшие не сложную регистрацию
    Показать сообщения:    

    Шаг к счастью через торрент
    Скачать бесплатно Шаг к счастью
    Шаг к счастью скачать торрент
    Шаг к счастью смотреть онлайн
    Cкачать фильм Шаг к счастью бесплатно
    Шаг к счастью скачать торрент в хорошем качестве
    Шаг к счастью смотреть онлайн бесплатно в хорошем качестве


    Вы не можете начинать темы
    Вы не можете отвечать на сообщения
    Вы не можете редактировать свои сообщения
    Вы не можете удалять свои сообщения
    Вы не можете голосовать в опросах
    Вы не можете прикреплять файлы к сообщениям
    Вы можете скачивать файлы