Ссылка на приватное зеркало всего за 1$. Внимание количество ограничено!!!

OK

1+1

iTunes

мы

OK

1

WEB-DLRip

Джокер

Пифагор

Ведьмак / The Witcher сериал

iTunes

ПШазам

ОК

Оно 2

iTunes

30
pack

Вам бонус

ВАЖНО

!!Акция!!

Alien_RageХит недели

RePack

Resident Evil 21

ИГРА 18+

pack

RePack

jed

RePack

fifa19

RePack

Assassins Creed: Odyssey

RePack

NEED FOR SPEED™ PAYBACK

4 сезон

9 сезон

Бесстыжие 9 сезон

Все сериалы

все сериалы на PB.wtf

RePack

FAR CRY 5
  

Я ненавижу детей / I Hate Kids (Джон Мэллори Ашер) [2019 г., Комедия, WEB-DLRip, Любительский (многоголосый)(Синема УС)] pb.wtf

Я ненавижу детей через торрент pb.wtf

Раздают: 1 [ 0 KB/s ]
Размер: 1.34 GB | Добавлен: 11 мес. назад | Торрент скачан:116 раз
Скачать  

27-01-2019 10:02 Я ненавижу детей Скачать торрент  

Я ненавижу детей / I Hate Kids
Год выпуска: 2019
Страна: США
Жанр: Комедия
Продолжительность: 01:28:45
Перевод: Любительский (многоголосый)(Синема УС)
Субтитры: Отсутствуют

Режиссер: Джон Мэллори Ашер

rating

В ролях: Том Эверетт Скотт, Титус Берджесс, Джулиан Федер, Рэйчел Бостон, Ри Сихорн, Джули Энн Эмери, Бэт Рисграф, Арден Майрин, Брайан Бэтт, Джойс Булифэнт

Описание: Ник Пирсон - вечный холостяк, который наконец решил остепениться. Прямо перед свадьбой его ждёт сюрприз - при помощи ясновидящего его находит его тринадцатилетний сын. Но проблема в том, что Ник терпеть не может детей и с радостью готов отправить парня к его биологической матери, вот только никто не имеет представления, кто она. Не имея других вариантов, Ник отправляется в дорогу с сыном и невротичным нелепым ясновидящим, чтобы задать десяткам своих бывших один неловкий вопрос.

Доп. информация: Присутствуют вставки текстовой рекламы

Качество: WEB-DLRip
Формат: AVI
Видео кодек: XviD
Аудио кодек: AC3
Видео: XviD, 720x304, ~1760 Kbps
Аудио#1: AC-3, 2 ch, 384 Kbps
скриншот   скриншот   скриншот   скриншот  

Общее
Полное имя : C:\_\Я ненавижу детей\I Hate Kids 2019 WEB-DLRip.avi
Формат : AVI
Формат/Информация : Audio Video Interleave
Профиль формата : OpenDML
Размер файла : 1,34 Гбайт
Продолжительность : 1 ч. 28 м.
Общий поток : 2157 Кбит/сек

Видео
Идентификатор : 0
Формат : MPEG-4 Visual
Профиль формата : Advanced Simple@L5
Параметр BVOP формата : 2
Параметр QPel формата : Нет
Параметр GMC формата : Без точки перехода
Параметр матрицы формата : Default (H.263)
Идентификатор кодека : XVID
Идентификатор кодека/Подсказка : XviD
Продолжительность : 1 ч. 28 м.
Битрейт : 1760 Кбит/сек
Ширина : 720 пикселей
Высота : 304 пикселя
Соотношение сторон : 2,35:1
Частота кадров : 23,976 (24000/1001) кадра/сек
Цветовое пространство : YUV
Субдискретизация насыщенности : 4:2:0
Битовая глубина : 4 бит
Тип развёртки : Прогрессивная
Метод сжатия : С потерями
Бит/(Пиксели*Кадры) : 0.335
Размер потока : 1,09 Гбайт (82%)
Библиотека кодирования : XviD 1.2.1 (UTC 2008-12-04)

Аудио
Идентификатор : 1
Формат : AC-3
Формат/Информация : Audio Coding 3
Расширение режима : CM (complete main)
Параметр Endianness формата : Big
Идентификатор кодека : 2000
Продолжительность : 1 ч. 28 м.
Вид битрейта : Постоянный
Битрейт : 384 Кбит/сек
Каналы : 2 канала
Расположение каналов : Front: L R
Частота : 48,0 КГц
Частота кадров : 31,250 кадров/сек (1536 spf)
Метод сжатия : С потерями
Размер потока : 244 Мбайт (18%)
Выравнивание : Соединение по промежуткам
Продолжительность промежутка : 32 мс. (0,77 видеокадр)

pb.wtf



Скачать Я ненавижу детей через торрент http://pic1.kartinco.top/images/12/eoems.jpg Скачать фильм Я ненавижу детей через торрент бесплантно в хорошем качестве Описание: Ник Пирсон - вечный холостяк, который наконец решил остепениться. Прямо перед свадьбой его ждёт сюрприз - при помощи ясновидящего ... 8.7 10 7
Торрент: Зарегистрирован [2019-02-13 08:24] · скачан: 116 раз
Статус: √ проверено
Размер: 1.34 GB
Как cкачать? Как скачать Я ненавижу детей через торрент | qTorrent

28-11-2019 20:33  

Отключить всю рекламу на сайте

02-02-2019 13:45 Я ненавижу детей Скачать торрент  

fanta86 писал(а):

Забираю спс, комент позже автору спс.

ну и как кинчик???pb.wtf



13-02-2019 12:16 Я ненавижу детей Скачать торрент  

Иваныч1989 писал(а):

fanta86 писал(а):

Забираю спс, комент позже автору спс.

ну и как кинчик???

Он удалил комент .И не отписался по фильму . Значит что то пошло не так .pb.wtf



    Дорогой пользователь! Огромная просьба, поблагодарите релизера, оцените раздачу и оставьте свои комментарий, если Вы скачали Я ненавижу детей через торрент бесплатно! Внесите свою лепту в развитие PiratBit!
    Комментировать посты могут только пользователи прошедшие не сложную регистрацию
    Показать сообщения:    

    Я ненавижу детей через торрент
    Скачать бесплатно Я ненавижу детей
    Я ненавижу детей скачать торрент
    Я ненавижу детей смотреть онлайн
    Cкачать фильм Я ненавижу детей бесплатно
    Я ненавижу детей скачать торрент в хорошем качестве
    Я ненавижу детей смотреть онлайн бесплатно в хорошем качестве


    Вы не можете начинать темы
    Вы не можете отвечать на сообщения
    Вы не можете редактировать свои сообщения
    Вы не можете удалять свои сообщения
    Вы не можете голосовать в опросах
    Вы не можете прикреплять файлы к сообщениям
    Вы можете скачивать файлы