новый адрес
Ссылка на приватное зеркало всего за 1$. Внимание количество ограничено!!!

iTunes

1+1

iTunes

мы

WEB-DL

1

iTunes

Чернобыль

iTunes

Ральф против интернета

Лицензия

ПШазам

Лицензия

Оно 2

Лицензия

30
pack

Вам бонус

ВАЖНО

!!Акция!!

Alien_RageХит недели

RePack

Resident Evil 21

ИГРА 18+

pack

RePack

jed

!!Акция!!

Alien_Rage

RePack

fifa19

RePack

Assassins Creed: Odyssey

RePack

NEED FOR SPEED™ PAYBACK

3 сезон

9 сезон

Бесстыжие 9 сезон

Все сериалы

все сериалы на PB.wtf

RePack

FAR CRY 5
Ребята, катастрофически не хватает 1900р. для оплаты серверов за Октябрь (всвязи с блокировками трафик упал в 3 раза), 1-2р., выручайте.
  

Старик с пистолетом / The Old Man & the Gun (Дэвид Лоури) [2018, драма, комедия, криминал, BDRip-AVC] [MVO] (HDRezka Studio) - ExKinoRay pb.wtf

Старик с пистолетом через торрент pb.wtf

Раздают: 3 [ 0 KB/s ]
Размер: 2.66 GB | Добавлен: 9 мес. назад | Торрент скачан:438 раз
Скачать  

26-02-2019 02:12 Старик с пистолетом Скачать торрент  

Информация о фильме
Название: Старик с пистолетом
Оригинальное название: The Old Man & the Gun

Год выхода: 2018
Жанр: Драма, комедия, криминал
Режиссер: Дэвид Лоури
В ролях: Роберт Редфорд, Сисси Спейсек, Кейси Аффлек, Дэнни Гловер, Том Уэйтс, Тика Самптер, Ари Элизабет Джонсон, Тиган Джонсон, Джин Джонс, Джон Дэвид Вашингтон, Элизабет Мосс

Описание:
Правдивая история неисправимого вора Форреста Таккера, который большую часть жизни посвятил обчищению банков и побегу из тюрем. На закате своей беспокойной «карьеры» 78-летний Таккер снова берётся за любимое дело, невзирая на преследование молодого детектива и обязательства перед преданной женой.

rating

Страна: США
Продолжительность: 01:33:03
Перевод: Профессиональный многоголосый (HDRezka Studio)
Субтитры: Русские (Focs), английские

БЕЗ КАКОЙ-ЛИБО РЕКЛАМЫ!

Формат: MKV
Качество: BDRip-AVC
Видео: MPEG-4 AVC, 1024x428 (2.40:1), 23.976 fps, 3274 Kbps, 0.312 bit/pixel
Аудио #01: 48 kHz, AC3, 5.1, 384 Kbps | MVO | RUS |
Аудио #02: 48 kHz, AC3, 5.1, 448 Kbps | Оригинал | ENG |
x264 [info]: frame I:846 Avg QP:13.99 size: 72494
x264 [info]: frame P:22154 Avg QP:17.13 size: 32217
x264 [info]: frame B:110878 Avg QP:19.28 size: 13549
________________________________________________________

General
Unique ID : 184502877562748916526850847838959009515 (0x8ACDF6302916EA20A5362F5D7F077EEB)
Complete name : D:\The.Old.Man.and.the.Gun.2018.MVO.BDRip.AVC.ExKinoRay.mkv
Format : Matroska
Format version : Version 2
File size : 2.66 GiB
Duration : 1 h 33 min
Overall bit rate : 4 097 kb/s
Movie name : The Old Man and the Gun 2018 from ExKinoRay
Encoded date : UTC 2019-02-26 00:04:30
Writing application : mkvmerge v5.6.0 ('Kenya Kane') built on May 27 2012 16:44:04
Writing library : libebml v1.2.3 + libmatroska v1.3.0

Video
ID : 1
Format : AVC
Format/Info : Advanced Video Codec
Format profile : High@L4.1
Format settings, CABAC : Yes
Format settings, ReFrames : 12 frames
Codec ID : V_MPEG4/ISO/AVC
Duration : 1 h 33 min
Bit rate : 3 274 kb/s
Width : 1 024 pixels
Height : 428 pixels
Display aspect ratio : 2.40:1
Frame rate mode : Constant
Frame rate : 23.976 (23976/1000) FPS
Color space : YUV
Chroma subsampling : 4:2:0
Bit depth : 8 bits
Scan type : Progressive
Bits/(Pixel*Frame) : 0.312
Stream size : 2.07 GiB (78%)
Title : Enigma
Writing library : x264 core 152 r2851 ba24899
Encoding settings : cabac=1 / ref=12 / deblock=1:-2:-2 / analyse=0x3:0x113 / me=umh / subme=10 / psy=1 / psy_rd=0.98:0.05 / mixed_ref=1 / me_range=32 / chroma_me=1 / trellis=2 / 8x8dct=1 / cqm=0 / deadzone=21,11 / fast_pskip=0 / chroma_qp_offset=-3 / threads=12 / lookahead_threads=3 / sliced_threads=0 / nr=0 / decimate=0 / interlaced=0 / bluray_compat=0 / constrained_intra=0 / bframes=14 / b_pyramid=2 / b_adapt=2 / b_bias=0 / direct=3 / weightb=1 / open_gop=0 / weightp=2 / keyint=240 / keyint_min=23 / scenecut=40 / intra_refresh=0 / rc=2pass / mbtree=0 / bitrate=3274 / ratetol=1.0 / qcomp=0.70 / qpmin=0 / qpmax=51 / qpstep=4 / cplxblur=20.0 / qblur=0.5 / ip_ratio=1.40 / pb_ratio=1.30 / aq=2:0.90
Language : English
Default : Yes
Forced : No
Color range : Limited
Color primaries : BT.709
Transfer characteristics : BT.709
Matrix coefficients : BT.709

Audio #1
ID : 2
Format : AC-3
Format/Info : Audio Coding 3
Mode extension : CM (complete main)
Format settings, Endianness : Big
Codec ID : A_AC3
Duration : 1 h 33 min
Bit rate mode : Constant
Bit rate : 384 kb/s
Channel(s) : 6 channels
Channel positions : Front: L C R, Side: L R, LFE
Sampling rate : 48.0 kHz
Frame rate : 31.250 FPS (1536 spf)
Compression mode : Lossy
Stream size : 256 MiB (9%)
Title : MVO [HDRezka]
Language : Russian
Default : Yes
Forced : No

Audio #2
ID : 3
Format : AC-3
Format/Info : Audio Coding 3
Mode extension : CM (complete main)
Format settings, Endianness : Big
Codec ID : A_AC3
Duration : 1 h 33 min
Bit rate mode : Constant
Bit rate : 448 kb/s
Channel(s) : 6 channels
Channel positions : Front: L C R, Side: L R, LFE
Sampling rate : 48.0 kHz
Frame rate : 31.250 FPS (1536 spf)
Compression mode : Lossy
Stream size : 298 MiB (11%)
Language : English
Default : No
Forced : No

Text #1
ID : 4
Format : UTF-8
Codec ID : S_TEXT/UTF8
Codec ID/Info : UTF-8 Plain Text
Title : Full (Focs)
Language : Russian
Default : No
Forced : No

Text #2
ID : 5
Format : UTF-8
Codec ID : S_TEXT/UTF8
Codec ID/Info : UTF-8 Plain Text
Language : English
Default : No
Forced : No

Menu
00:00:00.000 : en:00:00:00.000
00:03:21.618 : en:00:03:21.618
00:08:18.498 : en:00:08:18.498
00:13:35.940 : en:00:13:35.940
00:19:34.507 : en:00:19:34.507
00:23:02.214 : en:00:23:02.214
00:26:35.761 : en:00:26:35.761
00:30:38.962 : en:00:30:38.962
00:34:17.472 : en:00:34:17.472
00:38:02.155 : en:00:38:02.155
00:41:30.697 : en:00:41:30.697
00:44:40.887 : en:00:44:40.887
00:48:19.230 : en:00:48:19.230
00:50:06.003 : en:00:50:06.003
00:53:44.304 : en:00:53:44.304
00:56:18.875 : en:00:56:18.875
01:00:09.981 : en:01:00:09.981
01:04:19.022 : en:01:04:19.022
01:09:40.968 : en:01:09:40.968
01:14:20.790 : en:01:14:20.790
01:18:02.595 : en:01:18:02.595
01:21:18.248 : en:01:21:18.248
01:24:33.944 : en:01:24:33.944
01:26:49.996 : en:01:26:49.996
Релиз от:

Автор релиза: pb.wtf



Скачать Старик с пистолетом через торрент https://c.radikal.ru/c30/1901/87/e174eddc7a41.jpg Скачать фильм Старик с пистолетом через торрент бесплантно в хорошем качестве Описание:Правдивая история неисправимого вора Форреста Таккера, который большую часть жизни посвятил обчищению банков и побегу из тюрем. На ... 10 10 8
Info! Золотая раздача, скачанное не засчитывается.
Торрент: Зарегистрирован [2019-02-26 02:12] · скачан: 438 раз
Статус: √ проверено
Размер: 2.66 GB
Как cкачать? Как скачать Старик с пистолетом через торрент | qTorrent

28-11-2019 20:33  

Отключить всю рекламу на сайте

26-02-2019 06:02 Старик с пистолетом Скачать торрент  

Спасибоpb.wtf



    Дорогой пользователь! Огромная просьба, поблагодарите релизера, оцените раздачу и оставьте свои комментарий, если Вы скачали Старик с пистолетом через торрент бесплатно! Внесите свою лепту в развитие PiratBit!
    Комментировать посты могут только пользователи прошедшие не сложную регистрацию
    Показать сообщения:    

    Старик с пистолетом через торрент
    Скачать бесплатно Старик с пистолетом
    Старик с пистолетом скачать торрент
    Старик с пистолетом смотреть онлайн
    Cкачать фильм Старик с пистолетом бесплатно
    Старик с пистолетом скачать торрент в хорошем качестве
    Старик с пистолетом смотреть онлайн бесплатно в хорошем качестве


    Вы не можете начинать темы
    Вы не можете отвечать на сообщения
    Вы не можете редактировать свои сообщения
    Вы не можете удалять свои сообщения
    Вы не можете голосовать в опросах
    Вы не можете прикреплять файлы к сообщениям
    Вы можете скачивать файлы