Ссылка на приватное зеркало нашего сайта всего за 1$. Внимание количество ограничено!!!

2 сезон

iTunes

1 сезон

1

2 сезон

2 сезон

iTunes

1 сезон

RePack

30

Ultimate

ВАЖНО

ИГРА 18+

pack

RePack

MK11
pack

Забери бонус

RePack

jed

!!Акция!!

Alien_Rage

RePack

fifa19

RePack

Assassins Creed: Odyssey

RePack

NEED FOR SPEED™ PAYBACK

4 сезон

9 сезон

Бесстыжие 9 сезон

Все сериалы

все сериалы на PB.wtf

RePack

FAR CRY 5
  

Академия «Амбрелла» / The Umbrella Academy / Сезон: 1 / Серии: 1-10 из 10 (Эндрю Бернштейн, Питер Хор, Эллен Кёрас) [2019, фэнтези, боевик, WEB-DL 1080p] MVO [Jaskier] pb.wtf

Академия «Амбрелла» через торрент pb.wtf

Размер: 39.13 GB | Добавлен: 1 год 8 мес. назад | Торрент скачан:37 раз
Скачать  

26-02-2019 15:18 Академия «Амбрелла» Скачать торрент  

Академия «Амбрелла» / The Umbrella Academy Год выпуска: 2019
Страна: США
Жанр: фэнтези, боевик
Продолжительность: ~ 01:00:00
Перевод: Профессиональный (многоголосый) | Jaskier
Субтитры: отсутствуют

Режиссер: Эндрю Бернштейн, Питер Хор, Эллен Кёрас

rating

В ролях:

Эйдан Галлахер, Камерон Бриттон, Иден Кьюпид, Кэмерон Бродер, Ethan Hwang, Dante Albidone, Том Хоппер, Дэвид Кастанеда, Роберт Шиэн, Эмми Рэвер-Лэмпман

Описание:

Действие разворачивается в альтернативной вселенной. В середине 20-го века 43 женщины, которые до этого не были беременны, одновременно рожают младенцев, наделённых суперспособностями. Пришелец, скрывающийся под личиной сэра Реджинальда Харггривса, спасает семерых новорождённых и создаёт Академию «Амбрелла». Вместе они используют свои таланты для защиты Земли. Годы спустя, после распада Академии, ученики встречаются на похоронах Харггривса. Им предстоит вновь объединиться ради защиты человечества и выступить против одного из бывших соратников по Академии.

Качество: WEB-DL 1080p
Формат: MKV

Видео: ~ 8 000 kbps, 1920x960, 23.976 fps
Аудио#1: Rus: AC3, 6 ch, 384 kbps
Аудио#2: Eng: AC3, 6 ch, 384 kbps
скриншот  скриншот  скриншот  

Общее
Уникальный идентификатор : 215005713963420500643134020393872338676 (0xA1C09822516739B4A3BD0891EE172EF4)
Полное имя : E:\The Umbrella Academy. Season 1 (WEB-DL l 1080p l Jaskier)\The.Umbrella.Academy.S01E01.1080p.WEB-DL.DD5.1.H.264-Jaskier.mkv
Формат : Matroska
Версия формата : Version 2
Размер файла : 3,69 Гбайт
Продолжительность : 59 м. 18 с.
Общий поток : 8907 Кбит/сек
Дата кодирования : UTC 2019-02-25 16:44:06
Программа кодирования : mkvmerge v7.8.0 ('River Man') 32bit built on Apr 3 2015 12:11:22
Библиотека кодирования : libebml v1.3.1 + libmatroska v1.4.2

Видео
Идентификатор : 1
Формат : AVC
Формат/Информация : Advanced Video Codec
Профиль формата : High@L4.1
Настройки формата : CABAC / 4 Ref Frames
Параметр CABAC формата : Да
Параметр RefFrames формата : 4 кадра
Идентификатор кодека : V_MPEG4/ISO/AVC
Продолжительность : 59 м. 18 с.
Битрейт : 7962 Кбит/сек
Ширина : 1920 пикселей
Высота : 960 пикселей
Соотношение сторон : 2,000
Режим частоты кадров : Постоянный
Частота кадров : 23,976 (24000/1001) кадра/сек
Цветовое пространство : YUV
Субдискретизация насыщенности : 4:2:0
Битовая глубина : 8 бит
Тип развёртки : Прогрессивная
Бит/(Пиксели*Кадры) : 0.180
Размер потока : 3,30 Гбайт (89%)
Библиотека кодирования : x264 core 152 r2851kMod ba24899
Настройки программы : cabac=1 / ref=4 / deblock=1:-3:-3 / analyse=0x3:0x133 / me=umh / subme=10 / psy=1 / fade_compensate=0.00 / psy_rd=1.00:0.00 / mixed_ref=1 / me_range=48 / chroma_me=1 / trellis=2 / 8x8dct=1 / cqm=0 / deadzone=21,11 / fast_pskip=0 / chroma_qp_offset=-2 / threads=18 / lookahead_threads=3 / sliced_threads=0 / nr=0 / decimate=0 / interlaced=0 / bluray_compat=0 / constrained_intra=0 / bframes=8 / b_pyramid=2 / b_adapt=2 / b_bias=0 / direct=3 / weightb=1 / open_gop=0 / weightp=2 / keyint=250 / keyint_min=23 / scenecut=40 / intra_refresh=0 / rc=crf / mbtree=0 / crf=17.0000 / qcomp=0.60 / qpmin=0 / qpmax=69 / qpstep=4 / ip_ratio=1.30 / pb_ratio=1.20 / aq=3:0.80
Язык : English
Default : Да
Forced : Нет

Аудио #1
Идентификатор : 2
Формат : AC-3
Формат/Информация : Audio Coding 3
Идентификатор кодека : A_AC3
Продолжительность : 59 м. 18 с.
Вид битрейта : Постоянный
Битрейт : 384 Кбит/сек
Каналы : 6 каналов
Расположение каналов : Front: L C R, Side: L R, LFE
Частота : 48,0 КГц
Частота кадров : 31,250 кадров/сек (1536 SPF)
Битовая глубина : 16 бит
Метод сжатия : С потерями
Размер потока : 163 Мбайт (4%)
Заголовок : Jaskier
Язык : Russian
ServiceKind/String : Complete Main
Default : Да
Forced : Нет

Аудио #2
Идентификатор : 3
Формат : AC-3
Формат/Информация : Audio Coding 3
Идентификатор кодека : A_AC3
Продолжительность : 59 м. 18 с.
Вид битрейта : Постоянный
Битрейт : 384 Кбит/сек
Каналы : 6 каналов
Расположение каналов : Front: L C R, Side: L R, LFE
Частота : 48,0 КГц
Частота кадров : 31,250 кадров/сек (1536 SPF)
Битовая глубина : 16 бит
Метод сжатия : С потерями
Размер потока : 163 Мбайт (4%)
Язык : English
ServiceKind/String : Complete Main
Default : Нет
Forced : Нет

pb.wtf



Скачать Академия «Амбрелла» через торрент https://i109.fastpic.ru/big/2019/0224/d2/123cca0a89b69a7ec87b37ca262c4fd2.png Скачать фильм Академия «Амбрелла» через торрент бесплантно в хорошем качестве Описание: Действие разворачивается в альтернативной вселенной. В середине 20-го века 43 женщины, которые до этого не были беременны, ... 10 10 2
Торрент: Зарегистрирован [2019-02-26 15:18] · скачан: 37 раз
Статус: √ проверено
Размер: 39.13 GB
Как cкачать? Как скачать Академия «Амбрелла» через торрент | qTorrent

% Раздел Тема Автор DL S | L
Зарубежные сериалы [ 25.71 GB ] Академия «Амбрелла» / The Umbrella Academy / Сезон: 2 / Серии: 1-10 из 10 [2020 WEB-DL 1080p] MVO [NewStudio] bober100 Скачать
1 | 0
Зарубежные сериалы [ 19.44 GB ] Академия «Амбрелла» / The Umbrella Academy / Сезон: 1 / Серии: 1-10 из 10 [2019 WEBRip 720p] MVO [LostFilm] bober100 Скачать
2 | 0
Зарубежные сериалы [ 40.11 GB ] Академия «Амбрелла» / The Umbrella Academy / Сезон: 1 / Серии: 1-10 из 10 [2019 WEBRip 1080p] MVO [LostFilm] bober100 Скачать
2 | 0
Зарубежные сериалы [ 24.86 GB ] Академия «Амбрелла» / The Umbrella Academy / Сезон: 2 / Серии: 1-10 из 10 [2020 WEB-DL 1080p] MVO [LostFilm] bober100 Скачать
1 | 1
Зарубежные сериалы [ 10.1 GB ] Академия «Амбрелла» / The Umbrella Academy / Сезон: 2 / Серии: 1-10 из 10 [2020 WEB-DL 720p] DUB [Пифагор / Netflix] bober100 Скачать
3 | 0
Зарубежные сериалы [ 6.02 GB ] Академия «Амбрелла» / The Umbrella Academy / Сезон: 2 / Серии: 1-10 из 10 [2020 WEB-DLRip] DUB [Пифагор / Netflix] bober100 Скачать
2 | 0
Зарубежные сериалы [ 25.71 GB ] Академия «Амбрелла» / The Umbrella Academy / Сезон: 2 / Серии: 1-10 из 10 [2020 WEB-DL 1080p] DUB [Пифагор / Netflix] bober100 Скачать
4 | 0

28-11-2019 20:33  

Отключить всю рекламу на сайте

    Дорогой пользователь! Огромная просьба, поблагодарите релизера, оцените раздачу и оставьте свои комментарий, если Вы скачали Академия «Амбрелла» через торрент бесплатно! Внесите свою лепту в развитие PiratBit!
    Комментировать посты могут только пользователи прошедшие не сложную регистрацию
    Показать сообщения:    

    Академия «Амбрелла» через торрент
    Скачать бесплатно Академия «Амбрелла»
    Академия «Амбрелла» скачать торрент
    Академия «Амбрелла» смотреть онлайн
    Cкачать фильм Академия «Амбрелла» бесплатно
    Академия «Амбрелла» скачать торрент в хорошем качестве
    Академия «Амбрелла» смотреть онлайн бесплатно в хорошем качестве


    Вы не можете начинать темы
    Вы не можете отвечать на сообщения
    Вы не можете редактировать свои сообщения
    Вы не можете удалять свои сообщения
    Вы не можете голосовать в опросах
    Вы не можете прикреплять файлы к сообщениям
    Вы можете скачивать файлы