Ссылка на приватное зеркало всего за 1$. Внимание количество ограничено!!!

OK

1+1

iTunes

мы

OK

1

WEB-DLRip

Джокер

Пифагор

Ведьмак / The Witcher сериал

Лицензия

ПШазам

ОК

Оно 2

iTunes

30
pack

Вам бонус

ВАЖНО

!!Акция!!

Alien_RageХит недели

RePack

Resident Evil 21

ИГРА 18+

pack

RePack

jed

!!Акция!!

Alien_Rage

RePack

fifa19

RePack

Assassins Creed: Odyssey

RePack

NEED FOR SPEED™ PAYBACK

4 сезон

9 сезон

Бесстыжие 9 сезон

Все сериалы

все сериалы на PB.wtf

RePack

FAR CRY 5
  

Волки и Овцы: Ход свиньёй (Владимир Николаев) [2018, Мультфильм, семейный, комедия, приключения, WEB-DLRip-AVC] iTunes - ExKinoRay pb.wtf

Волки и Овцы: Ход свиньёй через торрент pb.wtf

Раздают: 3 [ 77 KB/s ]
Размер: 1.44 GB | Добавлен: 10 мес. назад | Торрент скачан:420 раз
Скачать  

27-02-2019 04:50 Волки и Овцы: Ход свиньёй Скачать торрент  

Информация о фильме
Оригинальное название: Волки и Овцы: Ход свиньёй
Год выпуска: 2018
Жанр: Мультфильм, полнометражный, семейный, комедия, приключения
Режиссер: Владимир Николаев
В ролях: Елизавета Боярская, Максим Матвеев, Галина Корнева, Антон Юрьев, Алексей Сигаев, Даниил Эльдаров

Описание:
В спокойной и размеренной жизни объединенного городка волков и овец появляются неожиданные гости — песец и маленькая овечка. Никто не ожидал, что они принесут с собой смертельную опасность, преодолеть которую можно лишь всем вместе. Ведь только сообща решаются большие проблемы и серьезные задачи — в единстве сила!




Страна: Россия
Студия: Кинокомпания CTB, Wizart Animation
Продолжительность: 01:11:45
Язык: Русский | iTunes

БЕЗ КАКОЙ-ЛИБО РЕКЛАМЫ!

Формат: MKV
Качество: WEB-DLRip-AVC
Видео: MPEG-4 AVC, 1024x428 (2.40:1), 25.000 fps, 2489 Kbps, 0.227 bit/pixel
Аудио: 48 kHz, AC3, 5.1, 384 Kbps | RUS |
General
Unique ID : 222050155391771098753934972474888219039 (0xA70D4DE9639C32C887926E0CB1DEE99F)
Complete name : D:\VOLKI.OVCY.HOD.SVINJEY.2018.WEB-DLRip.AVC.ExKinoRay.mkv
Format : Matroska
Format version : Version 4 / Version 2
File size : 1.44 GiB
Duration : 1 h 11 min
Overall bit rate : 2 874 kb/s
Movie name : Волки и Овцы: Ход свиньёй (2018) from ExKinoRay
Encoded date : UTC 2019-02-27 03:20:59
Writing application : mkvmerge v7.6.0 ('Garden of Dreams') 32bit built on Feb 11 2015 00:18:47
Writing library : libebml v1.3.1 + libmatroska v1.4.2

Video
ID : 1
Format : AVC
Format/Info : Advanced Video Codec
Format profile : High@L4.1
Format settings, CABAC : Yes
Format settings, ReFrames : 11 frames
Codec ID : V_MPEG4/ISO/AVC
Duration : 1 h 11 min
Bit rate : 2 489 kb/s
Width : 1 024 pixels
Height : 428 pixels
Display aspect ratio : 2.40:1
Frame rate mode : Constant
Frame rate : 25.000 FPS
Color space : YUV
Chroma subsampling : 4:2:0
Bit depth : 8 bits
Scan type : Progressive
Bits/(Pixel*Frame) : 0.227
Stream size : 1.25 GiB (87%)
Title : Enigma
Writing library : x264 core 152 r2851 ba24899
Encoding settings : cabac=1 / ref=11 / deblock=1:-2:-2 / analyse=0x3:0x113 / me=umh / subme=10 / psy=1 / psy_rd=1.04:0.08 / mixed_ref=1 / me_range=32 / chroma_me=1 / trellis=2 / 8x8dct=1 / cqm=0 / deadzone=21,11 / fast_pskip=0 / chroma_qp_offset=-3 / threads=12 / lookahead_threads=2 / sliced_threads=0 / nr=0 / decimate=0 / interlaced=0 / bluray_compat=0 / constrained_intra=0 / bframes=9 / b_pyramid=2 / b_adapt=2 / b_bias=0 / direct=3 / weightb=1 / open_gop=0 / weightp=2 / keyint=250 / keyint_min=25 / scenecut=40 / intra_refresh=0 / rc=2pass / mbtree=0 / bitrate=2489 / ratetol=1.0 / qcomp=0.60 / qpmin=0 / qpmax=51 / qpstep=4 / cplxblur=20.0 / qblur=0.5 / ip_ratio=1.30 / pb_ratio=1.20 / aq=1:1.00
Default : Yes
Forced : No
Color range : Limited
Color primaries : BT.709
Transfer characteristics : BT.709
Matrix coefficients : BT.709

Audio
ID : 2
Format : AC-3
Format/Info : Audio Coding 3
Mode extension : CM (complete main)
Format settings, Endianness : Big
Codec ID : A_AC3
Duration : 1 h 11 min
Bit rate mode : Constant
Bit rate : 384 kb/s
Channel(s) : 6 channels
Channel positions : Front: L C R, Side: L R, LFE
Sampling rate : 48.0 kHz
Frame rate : 31.250 FPS (1536 spf)
Compression mode : Lossy
Stream size : 197 MiB (13%)
Language : Russian
Default : Yes
Forced : No

Menu
00:00:00.000 : en:Глава 1
00:04:54.960 : en:Глава 2
00:11:02.200 : en:Глава 3
00:16:08.080 : en:Глава 4
00:22:05.560 : en:Глава 5
00:26:49.200 : en:Глава 6
00:30:52.080 : en:Глава 7
00:34:50.320 : en:Глава 8
00:40:21.120 : en:Глава 9
00:45:29.760 : en:Глава 10
00:51:37.320 : en:Глава 11
00:56:52.720 : en:Глава 12
01:02:29.080 : en:Глава 13
Релиз от:

Автор релиза: pb.wtf



Скачать Волки и Овцы: Ход свиньёй через торрент https://b.radikal.ru/b05/1902/f8/2ff528fc4fff.jpg Скачать фильм Волки и Овцы: Ход свиньёй через торрент бесплантно в хорошем качестве Описание: В спокойной и размеренной жизни объединенного городка волков и овец появляются неожиданные гости — песец и маленькая овечка. ... 9.8 10 14
Info! Золотая раздача, скачанное не засчитывается.
Торрент: Зарегистрирован [2019-02-27 04:50] · скачан: 420 раз
Статус: √ проверено
Размер: 1.44 GB
Как cкачать? Как скачать Волки и Овцы: Ход свиньёй через торрент | qTorrent

% Раздел Тема Автор DL S | L
Наши мультфильмы [ 1.65 GB ] Волки и Овцы: Ход свиньёй [2018 Мультфильм BDRip-AVC] [GER Transfer / ] - ExKinoRay Enigma2010 Скачать
3 | 0

28-11-2019 20:33  

Отключить всю рекламу на сайте

    Дорогой пользователь! Огромная просьба, поблагодарите релизера, оцените раздачу и оставьте свои комментарий, если Вы скачали Волки и Овцы: Ход свиньёй через торрент бесплатно! Внесите свою лепту в развитие PiratBit!
    Комментировать посты могут только пользователи прошедшие не сложную регистрацию
    Показать сообщения:    

    Волки и Овцы: Ход свиньёй через торрент
    Скачать бесплатно Волки и Овцы: Ход свиньёй
    Волки и Овцы: Ход свиньёй скачать торрент
    Волки и Овцы: Ход свиньёй смотреть онлайн
    Cкачать фильм Волки и Овцы: Ход свиньёй бесплатно
    Волки и Овцы: Ход свиньёй скачать торрент в хорошем качестве
    Волки и Овцы: Ход свиньёй смотреть онлайн бесплатно в хорошем качестве


    Вы не можете начинать темы
    Вы не можете отвечать на сообщения
    Вы не можете редактировать свои сообщения
    Вы не можете удалять свои сообщения
    Вы не можете голосовать в опросах
    Вы не можете прикреплять файлы к сообщениям
    Вы можете скачивать файлы