Всегда рабочее зеркало просто перед .vidak.icu напиши любое слово или цифру, Пример http://w3i.vidak.icu

>

7.4

iTunes

7.4

2 сезон

6.6

iTunes

1

7.4

2 сезон

7.2

iTunes

6.0

MVO

13

6.1

iTunes

8.3

Пиратка

30

ULTIMATE

pack

9.9

Лицензия

ВАЖНО

ИГРА 18+

pack

7.3

RePack

MK11

7.7

RePack

jed

7.8

RePack

fifa19

8.5

RePack

RDR2

RePack

NEED FOR SPEED™ PAYBACK

1 сезон

9 сезон

Бесстыжие 9 сезон

Все сериалы

все сериалы на PB.wtf

RePack

FAR CRY 5

Anonymous, добрый вечер, мы катастрофически не успеваем собрать деньги на оплату серверов, помогите нам пожалуйста 5,10,15р., для нас важна любая помощь . В качестве благодарности мы отключим Вам всю рекламу на сайте (укажите свой ник в строку Ваше имя)!

×
  
Magnet ссылка

Имитация жизни / Imitation of Life (Дуглас Сирк) [1959, драма, BDRip 1080p by msltel] AVO pb.wtf

Имитация жизни через торрент pb.wtf

Размер: 15.74 GB | Добавлен: 2 года 10 мес. назад | Торрент скачан:0 раз
Смотреть онлайн Имитация жизни | Скачать    Ребята, помогите собрать деньги на оплату серверов!!!

27-02-2019 06:34 Имитация жизни Скачать торрент  

Название: Имитация жизни
Оригинальное название: Imitation of Life
Год выпуска: 1959
Страна: США
Жанр: драма
Продолжительность: 02:04:32
Перевод: авторский

Режиссер: Дуглас Сирк
В ролях: Лана Тёрнер, Джон Гэвин, Сандра Ди, Роберт Алда, Сьюзэн Кохнер, Дэн О`Херлихи, Хуанита Мур, Карин Дикер, Терри Бернэм, Ли Гудман, Энн Робинсон, Трой Донахью, Сандра Гулд, Джек Уэстон, Билли Хаус, Майда Сэверн, Тан Вьенн, Пег Ширли, Джордж Бэрроус, Пол Брэдли, Тедди Бакнер, Майк Де Лэй, Сисели Эванс, Мирна Фэйхи, Бесс Флауэрс, Леота Лоррэйн, Форбс Мюррэй, Эдди Паркер, Эдди Смит, Наполеон Уайтинг

О фильме: Двенадцать лет из жизни четырёх женщин, разбивших в кровь коленки в погоне за химерами счастья...



Качество: BDRip 1080p
Формат: MKV
Видео: MPEG-4 AVC, 16.4 Mбит/с, 1920x960, 23.976 кадр/с
Аудио 1: русский, AC3, 192 kbps, 2 ch, 48 kHz [авторский, Юрий Сербин]
Аудио 2: английский, DTS, 1509 kbps, 2 ch, 48 kHz [оригинал]
Субтитры 2: английские
Главы/чаптеры
Общее
Уникальный идентификатор : 209602949570877696556928915338340041783 (0x9DB00F48914FFB758DD5E4594D5B8437)
Полное имя : D:\Video\Имитация жизни.1959.BDRip 1080p by msltel.mkv
Формат : Matroska
Версия формата : Version 4
Размер файла : 15,7 Гбайт
Продолжительность : 2 ч. 4 м.
Общий поток : 18,1 Мбит/сек
Название фильма : Rip by msltel
Дата кодирования : UTC 2019-02-27 06:55:14
Программа кодирования : mkvmerge v8.2.0 ('World of Adventure') 64bit
Библиотека кодирования : libebml v1.3.1 + libmatroska v1.4.2

Видео
Идентификатор : 1
Формат : AVC
Формат/Информация : Advanced Video Codec
Профиль формата : High@L4.1
Настройки формата : CABAC / 4 Ref Frames
Параметр CABAC формата : Да
Параметр RefFrames формата : 4 кадра
Идентификатор кодека : V_MPEG4/ISO/AVC
Продолжительность : 2 ч. 4 м.
Битрейт : 16,4 Мбит/сек
Ширина : 1920 пикселей
Высота : 960 пикселей
Соотношение сторон : 2,000
Режим частоты кадров : Постоянный
Частота кадров : 23,976 (24000/1001) кадра/сек
Цветовое пространство : YUV
Субдискретизация насыщенности : 4:2:0
Битовая глубина : 8 бит
Тип развёртки : Прогрессивная
Бит/(Пиксели*Кадры) : 0.371
Размер потока : 14,3 Гбайт (91%)
Библиотека кодирования : x264 core 157 r2935 545de2f
Настройки программы : cabac=1 / ref=4 / deblock=1:-2:-2 / analyse=0x3:0x113 / me=umh / subme=11 / psy=1 / psy_rd=1.00:0.15 / mixed_ref=1 / me_range=32 / chroma_me=1 / trellis=2 / 8x8dct=1 / cqm=0 / deadzone=21,11 / fast_pskip=0 / chroma_qp_offset=-3 / threads=6 / lookahead_threads=1 / sliced_threads=0 / nr=0 / decimate=1 / interlaced=0 / bluray_compat=0 / constrained_intra=0 / bframes=11 / b_pyramid=2 / b_adapt=2 / b_bias=0 / direct=1 / weightb=1 / open_gop=0 / weightp=2 / keyint=230 / keyint_min=23 / scenecut=40 / intra_refresh=0 / rc_lookahead=40 / rc=crf / mbtree=1 / crf=22.0 / qcomp=0.60 / qpmin=0 / qpmax=69 / qpstep=4 / vbv_maxrate=50000 / vbv_bufsize=62500 / crf_max=0.0 / nal_hrd=none / filler=0 / ip_ratio=1.40 / aq=1:1.00
Язык : English
Default : Да
Forced : Нет

Аудио #1
Идентификатор : 2
Формат : AC-3
Формат/Информация : Audio Coding 3
Коммерческое название : Dolby Digital
Идентификатор кодека : A_AC3
Продолжительность : 2 ч. 4 м.
Вид битрейта : Постоянный
Битрейт : 192 Кбит/сек
Каналы : 2 канала
Channel layout : L R
Частота : 48,0 КГц
Частота кадров : 31,250 кадров/сек (1536 SPF)
Битовая глубина : 16 бит
Метод сжатия : С потерями
Размер потока : 171 Мбайт (1%)
Заголовок : Юрий Сербин
Язык : Russian
ServiceKind/String : Complete Main
Default : Да
Forced : Нет

Аудио #2
Идентификатор : 3
Формат : DTS
Формат/Информация : Digital Theater Systems
Идентификатор кодека : A_DTS
Продолжительность : 2 ч. 4 м.
Вид битрейта : Постоянный
Битрейт : 1509 Кбит/сек
Каналы : 2 канала
Channel layout : L R
Частота : 48,0 КГц
Частота кадров : 93,750 кадра/сек (512 SPF)
Битовая глубина : 16 бит
Метод сжатия : С потерями
Размер потока : 1,31 Гбайт (8%)
Заголовок : original
Язык : English
Default : Нет
Forced : Нет

Текст
Идентификатор : 4
Формат : UTF-8
Идентификатор кодека : S_TEXT/UTF8
Идентификатор кодека/Информация : UTF-8 Plain Text
Продолжительность : 1 ч. 59 м.
Битрейт : 77 бит/сек
ElementCount : 1773
Размер потока : 67,8 Кбайт (0%)
Заголовок : английские
Язык : English
Default : Нет
Forced : Нет

Меню
00:00:00.000 : en:Chapter 01
00:09:24.564 : en:Chapter 02
00:18:37.866 : en:Chapter 03
00:24:36.308 : en:Chapter 04
00:36:16.716 : en:Chapter 05
00:46:13.187 : en:Chapter 06
00:54:21.591 : en:Chapter 07
01:03:54.330 : en:Chapter 08
01:19:15.459 : en:Chapter 09
01:28:57.332 : en:Chapter 10
01:43:23.530 : en:Chapter 11
01:52:41.421 : en:Chapter 12
pb.wtf



Скачать Имитация жизни через торрент https://a.radikal.ru/a35/1902/5a/de25dc9f45fd.jpg Скачать, смотреть онлайн Имитация жизни бесплантно в хорошем качестве О фильме: Двенадцать лет из жизни четырёх женщин, разбивших в кровь коленки в погоне за химерами счастья... ... 10 10 1
Info! Золотая раздача, скачанное не засчитывается.
Торрент: Зарегистрирован [2019-02-27 06:34] · скачан: 0 раз
Статус: √ проверено
Размер: 15.74 GB
Как cкачать? Как скачать Имитация жизни через торрент | UTorrent

% Раздел Тема Автор DL S | L
Фильмы с авторской озвучкой [ 6.91 GB ] Имитация жизни / Imitation of Life [1959 BDRip 720p by msltel] AVO msltel Скачать
1 | 0

28-11-2019 20:33  

Отключить всю рекламу на сайте

    Дорогой пользователь! Огромная просьба, поблагодарите релизера, оцените раздачу и оставьте свои комментарий, если Вы скачали Имитация жизни через торрент бесплатно!
    Комментировать посты могут только пользователи прошедшие не сложную регистрацию
    Показать сообщения:    

    Имитация жизни через торрент
    Скачать бесплатно Имитация жизни
    Имитация жизни скачать торрент
    Имитация жизни смотреть онлайн
    Cкачать фильм Имитация жизни бесплатно
    Имитация жизни скачать торрент в хорошем качестве
    Имитация жизни смотреть онлайн бесплатно в хорошем качестве


    Вы не можете начинать темы
    Вы не можете отвечать на сообщения
    Вы не можете редактировать свои сообщения
    Вы не можете удалять свои сообщения
    Вы не можете голосовать в опросах
    Вы не можете прикреплять файлы к сообщениям
    Вы можете скачивать файлы