Ссылка на приватное зеркало нашего сайта всего за 1$. Внимание количество ограничено!!!

2 сезон

iTunes

1 сезон

1

2 сезон

2 сезон

iTunes

1 сезон

RePack

30

Новинка

ВАЖНО

ИГРА 18+

pack

RePack

MK11
pack

Забери бонус

RePack

jed

!!Акция!!

Alien_Rage

RePack

fifa19

RePack

Assassins Creed: Odyssey

RePack

NEED FOR SPEED™ PAYBACK

4 сезон

9 сезон

Бесстыжие 9 сезон

Все сериалы

все сериалы на PB.wtf

RePack

FAR CRY 5
  

Господь, благослови этот извилистый путь / God Bless the Broken Road (Харольд Кронк) [2018, драма, мелодрама, BDRemux 1080p] [MVO] (HDRezka) pb.wtf

Господь, благослови этот извилистый путь через торрент pb.wtf

Размер: 29.96 GB | Добавлен: 1 год 9 мес. назад | Торрент скачан:5 раз
Скачать  

27-02-2019 09:50 Господь, благослови этот извилистый путь Скачать торрент  

Господь, благослови этот извилистый путь / God Bless the Broken Road

Страна: США
Жанр: Драма, мелодрама
Год выпуска: 2018
Продолжительность: 01:51:32
Перевод: Профессиональный (многоголосый закадровый) HDRezka Studio
Субтитры: Английские

Режиссер: Харольд Кронк / Harold Cronk

В ролях: Линдсей Палсифер, Джордин Спаркс, ЛаДайниан Томлинсон, Эндрю В. Уолкер, Робин Гивенс, Макензи Мосс, Ким Делани, Гэри Граббс, Артур Картрайт, Мадлен Кэрролл

Описание: Привычный мир Эмбер рушится после известия о том, что ее муж погиб во время службы в Афганистане. Трагедия изменила все в ее жизни. Она перестала ходить в церковь, где руководила хором, и сосредоточилась на воспитании своей маленькой дочери Бри. Все еще оплакивая потерю, Эмбер сталкивается с серьезными финансовыми трудностями и в любой момент может потерять дом. Пытаясь удержаться на плаву, женщина работает официанткой и распродает вещи, постепенно теряя веру в Бога. Но однажды она знакомится с автогонщиком Коди Джексоном, который вскоре изменит ее жизнь.



Тип релиза: BDRemux 1080p
Контейнер: MKV
Видео: MPEG-4 AVC, 1080p, 1920:1080 (16:9), 34762 kbps, 23.976 fps
Аудио 1: АС3, 2 ch, 48 kHz, 192 kbps Русский MVO HDrezka Studio
Аудио 2: DTS-HD MA, 6 ch, 48 kHz, 3503 kbps, 24-bit (DTS Core 6 ch, 48 kHz, 1509 kbps) Английский
Формат субтитров: SRT
General
Unique ID : 137175222038433730083467854676747410992 (0x6732FC9D4C5131C8823A3D56E0B4DE30)
Complete name : G:\God.Bless.The.Broken.Road.2018.REMUX.mkv
Format : Matroska
Format version : Version 4 / Version 2
File size : 30.0 GiB
Duration : 1 h 51 min
Overall bit rate mode : Variable
Overall bit rate : 38.5 Mb/s
Movie name : God.Bless.The.Broken.Road.2018.REMUX.1080p.BluRay.DTS-HD.MA5.1-iFT
Encoded date : UTC 2019-02-26 18:59:30
Writing application : mkvmerge v20.0.0 ('I Am The Sun') 64-bit
Writing library : libebml v1.3.5 + libmatroska v1.4.8

Video
ID : 1
Format : AVC
Format/Info : Advanced Video Codec
Format profile : High@L4.1
Format settings : CABAC / 4 Ref Frames
Format settings, CABAC : Yes
Format settings, RefFrames : 4 frames
Codec ID : V_MPEG4/ISO/AVC
Duration : 1 h 51 min
Bit rate mode : Variable
Bit rate : 34.8 Mb/s
Maximum bit rate : 37.0 Mb/s
Width : 1 920 pixels
Height : 1 080 pixels
Display aspect ratio : 16:9
Frame rate mode : Constant
Frame rate : 23.976 (24000/1001) FPS
Color space : YUV
Chroma subsampling : 4:2:0
Bit depth : 8 bits
Scan type : Progressive
Bits/(Pixel*Frame) : 0.699
Stream size : 27.1 GiB (90%)
Language : English
Default : Yes
Forced : No

Audio #1
ID : 2
Format : AC-3
Format/Info : Audio Coding 3
Codec ID : A_AC3
Duration : 1 h 51 min
Bit rate mode : Constant
Bit rate : 192 kb/s
Channel(s) : 2 channels
Channel positions : Front: L R
Sampling rate : 48.0 kHz
Frame rate : 31.250 FPS (1536 SPF)
Bit depth : 16 bits
Compression mode : Lossy
Stream size : 153 MiB (0%)
Title : MVO HDrezka Studio
Language : Russian
Service kind : Complete Main
Default : Yes
Forced : No

Audio #2
ID : 3
Format : DTS
Format/Info : Digital Theater Systems
Format profile : MA / Core
Codec ID : A_DTS
Duration : 1 h 51 min
Bit rate mode : Variable / Constant
Bit rate : 3 503 kb/s / 1 509 kb/s
Channel(s) : 6 channels
Channel positions : Front: L C R, Side: L R, LFE
Sampling rate : 48.0 kHz
Frame rate : 93.750 FPS (512 SPF)
Bit depth : 24 bits
Compression mode : Lossless / Lossy
Stream size : 2.73 GiB (9%)
Language : English
Default : No
Forced : No

Text
ID : 4
Format : UTF-8
Codec ID : S_TEXT/UTF8
Codec ID/Info : UTF-8 Plain Text
Duration : 1 h 50 min
Bit rate : 52 b/s
Count of elements : 1486
Stream size : 42.8 KiB (0%)
Language : English
Default : No
Forced : No

Menu
00:00:00.000 : :Capítulo 01
00:07:10.639 : :Capítulo 02
00:13:30.726 : :Capítulo 03
00:20:51.166 : :Capítulo 04
00:28:07.519 : :Capítulo 05
00:34:20.767 : :Capítulo 06
00:41:30.154 : :Capítulo 07
00:50:19.183 : :Capítulo 08
00:56:21.253 : :Capítulo 09
01:03:19.671 : :Capítulo 10
01:09:58.194 : :Capítulo 11
01:18:15.107 : :Capítulo 12
01:25:13.567 : :Capítulo 13
01:32:08.106 : :Capítulo 14
01:37:35.725 : :Capítulo 15
01:45:08.302 : :Capítulo 16
скриншот  скриншот  скриншот  
pb.wtf



Скачать Господь, благослови этот извилистый путь через торрент https://i5.imageban.ru/out/2019/01/25/b87803a816848a963daaa95ef20f5b7c.jpg Скачать фильм Господь, благослови этот извилистый путь через торрент бесплантно в хорошем качестве Описание: Привычный мир Эмбер рушится после известия о том, что ее муж погиб во время службы в Афганистане. Трагедия изменила все в ее ... 10 10 1
Info! Золотая раздача, скачанное не засчитывается.
Торрент: Зарегистрирован [2019-02-27 09:50] · скачан: 5 раз
Статус: √ проверено
Размер: 29.96 GB
Как cкачать? Как скачать Господь, благослови этот извилистый путь через торрент | qTorrent

% Раздел Тема Автор DL S | L
T Фильмы [HD 720p, 1080p] (Хороший звук DUB, MVO) [ 10.39 GB ] Господь благослови этот извилистый путь / God Bless the Broken Road [2018 BDRip 1080p] MVO [HDRezka Studio] bober100 Скачать
1 | 0
T Фильмы 2018 [DVDrip, WEB-DLRip, HDrip] (DUB, MVO) [ 1.93 GB ] Господь благослови этот извилистый путь / God Bless the Broken Road [2018 BDRip-AVC] MVO [HDRezka Studio] bober100 Скачать
1 | 0

28-11-2019 20:33  

Отключить всю рекламу на сайте

    Дорогой пользователь! Огромная просьба, поблагодарите релизера, оцените раздачу и оставьте свои комментарий, если Вы скачали Господь, благослови этот извилистый путь через торрент бесплатно! Внесите свою лепту в развитие PiratBit!
    Комментировать посты могут только пользователи прошедшие не сложную регистрацию
    Показать сообщения:    

    Господь, благослови этот извилистый путь через торрент
    Скачать бесплатно Господь, благослови этот извилистый путь
    Господь, благослови этот извилистый путь скачать торрент
    Господь, благослови этот извилистый путь смотреть онлайн
    Cкачать фильм Господь, благослови этот извилистый путь бесплатно
    Господь, благослови этот извилистый путь скачать торрент в хорошем качестве
    Господь, благослови этот извилистый путь смотреть онлайн бесплатно в хорошем качестве


    Вы не можете начинать темы
    Вы не можете отвечать на сообщения
    Вы не можете редактировать свои сообщения
    Вы не можете удалять свои сообщения
    Вы не можете голосовать в опросах
    Вы не можете прикреплять файлы к сообщениям
    Вы можете скачивать файлы