Ссылка на приватное зеркало нашего сайта всего за 1$. Внимание количество ограничено!!!

2 сезон

iTunes

1 сезон

1

2 сезон

2 сезон

iTunes

1 сезон

RePack

30

Новинка

ВАЖНО

ИГРА 18+

pack

RePack

MK11
pack

Забери бонус

RePack

jed

!!Акция!!

Alien_Rage

RePack

fifa19

RePack

Assassins Creed: Odyssey

RePack

NEED FOR SPEED™ PAYBACK

4 сезон

9 сезон

Бесстыжие 9 сезон

Все сериалы

все сериалы на PB.wtf

RePack

FAR CRY 5
  

Приключения Аладдина / Alad'2 (Лайонел Стекти) [2018, комедия, WEB-DL 1080p] DUB [iTunes] pb.wtf

Приключения Аладдина через торрент pb.wtf

Раздают: 1 [ 0 KB/s ]
Размер: 3.36 GB | Добавлен: 1 год 8 мес. назад | Торрент скачан:432 раза
Скачать  

28-02-2019 05:44 Приключения Аладдина Скачать торрент  

Приключения Аладдина / Alad'2 Год выпуска: 2018
Страна: Франция
Жанр: комедия
Продолжительность: 01:37:48
Перевод: Дублированный | iTunes
Субтитры: отсутствуют

Режиссер: Лайонел Стекти

rating

В ролях:

Кев Адамс, Жамель Деббуз, Ванесса Гуид, Эрик Жюдор, Рамзи Бедиа, Вахид Бузиди, Ноэми Ленуар, Дмитрий Торджман, Микаэль Коэн, Фатсах Буяхмед

Описание:

А что бывает после «и жили они долго и счастливо»? На пороге Дворца в волшебном Багдаде, где проводят время Аладдин и Принцесса, появляется ужасный и опасный Диктатор. Чтобы избавиться от незваного гостя и не потерять Принцессу, Аладдину придется вновь окунуться в мир приключений и опасностей: пролететь на ковре-самолёте полмира, разыскать Волшебную лампу, своего приятеля Джинна и уже вместе с ним сразиться с Диктатором.

Качество: WEB-DL 1080p
Формат: MKV

Видео: AVC/H.264, 1920x804, ~4540 Kbps
Аудио: AC3, 6 ch, 384 kbps
скриншот  скриншот  скриншот  скриншот  

Общее
Уникальный идентификатор : 232472799026322602623191797191707633668 (0xAEE4A1EADDDE6D12820E012B4B42A804)
Полное имя : E:NNMПриключения АладдинаAlad 2 2018 WEB-DL 1080p-LQ.mkv
Формат : Matroska
Версия формата : Version 2
Размер файла : 3,36 Гбайт
Продолжительность : 1 ч. 37 м.
Общий поток : 5122 Кбит/сек
Дата кодирования : UTC 2019-02-27 19:45:16
Программа кодирования : mkvmerge v7.8.0 ('River Man') 32bit built on Apr 3 2015 12:11:22
Библиотека кодирования : libebml v1.3.1 + libmatroska v1.4.2

Видео
Идентификатор : 2
Формат : AVC
Формат/Информация : Advanced Video Codec
Профиль формата : High@L4
Настройки формата : CABAC / 5 Ref Frames
Параметр CABAC формата : Да
Параметр RefFrames формата : 5 кадров
Идентификатор кодека : V_MPEG4/ISO/AVC
Продолжительность : 1 ч. 37 м.
Битрейт : 4540 Кбит/сек
Ширина : 1920 пикселей
Высота : 804 пикселя
Соотношение сторон : 2,40:1
Режим частоты кадров : Постоянный
Частота кадров : 24,000 кадра/сек
Цветовое пространство : YUV
Субдискретизация насыщенности : 4:2:0
Битовая глубина : 8 бит
Тип развёртки : Прогрессивная
Бит/(Пиксели*Кадры) : 0.120
Размер потока : 3,03 Гбайт (90%)
Язык : English
Default : Да
Forced : Нет
Цветовой диапазон : Limited
Основные цвета : BT.709
Характеристики трансфера : BT.709
Коэффициенты матрицы : BT.709

Аудио
Идентификатор : 1
Формат : AC-3
Формат/Информация : Audio Coding 3
Идентификатор кодека : A_AC3
Продолжительность : 1 ч. 37 м.
Вид битрейта : Постоянный
Битрейт : 384 Кбит/сек
Каналы : 6 каналов
Расположение каналов : Front: L C R, Side: L R, LFE
Частота : 48,0 КГц
Частота кадров : 31,250 кадров/сек (1536 SPF)
Битовая глубина : 16 бит
Метод сжатия : С потерями
Размер потока : 269 Мбайт (8%)
Язык : Russian
ServiceKind : Complete Main
Default : Да
Forced : Нет

pb.wtf



Скачать Приключения Аладдина через торрент https://c.radikal.ru/c43/1902/ee/1b9a01100d8c.jpg Скачать фильм Приключения Аладдина через торрент бесплантно в хорошем качестве Описание: А что бывает после «и жили они долго и счастливо»? На пороге Дворца в волшебном Багдаде, где проводят время Аладдин и Принцесса, ... 9.6 10 18
Info! Золотая раздача, скачанное не засчитывается.
Торрент: Зарегистрирован [2019-02-28 05:44] · скачан: 432 раз
Статус: √ проверено
Размер: 3.36 GB
Как cкачать? Как скачать Приключения Аладдина через торрент | qTorrent

28-11-2019 20:33  

Отключить всю рекламу на сайте

    Дорогой пользователь! Огромная просьба, поблагодарите релизера, оцените раздачу и оставьте свои комментарий, если Вы скачали Приключения Аладдина через торрент бесплатно! Внесите свою лепту в развитие PiratBit!
    Комментировать посты могут только пользователи прошедшие не сложную регистрацию
    Показать сообщения:    

    Приключения Аладдина через торрент
    Скачать бесплатно Приключения Аладдина
    Приключения Аладдина скачать торрент
    Приключения Аладдина смотреть онлайн
    Cкачать фильм Приключения Аладдина бесплатно
    Приключения Аладдина скачать торрент в хорошем качестве
    Приключения Аладдина смотреть онлайн бесплатно в хорошем качестве


    Вы не можете начинать темы
    Вы не можете отвечать на сообщения
    Вы не можете редактировать свои сообщения
    Вы не можете удалять свои сообщения
    Вы не можете голосовать в опросах
    Вы не можете прикреплять файлы к сообщениям
    Вы можете скачивать файлы