Ссылка на приватное зеркало нашего сайта всего за 1$. Внимание количество ограничено!!!

2 сезон

iTunes

1 сезон

1

iTunes

iTunes

iTunes

1 сезон

RePack

30

ИГРА 18+

pack

ВАЖНО

!!Акция!!

Alien_RageХит недели

RePack

MK11
pack

Забери бонус

RePack

jed

!!Акция!!

Alien_Rage

RePack

fifa19

RePack

Assassins Creed: Odyssey

RePack

NEED FOR SPEED™ PAYBACK

4 сезон

9 сезон

Бесстыжие 9 сезон

Все сериалы

все сериалы на PB.wtf

RePack

FAR CRY 5
  

Мылодрама / Сезон: 1 / Серии: 1-9 из 9 (Илья Куликов) [2019, Комедия, WEBRip] pb.wtf

Мылодрама через торрент pb.wtf

Раздают: 1 [ 0 KB/s ]
Размер: 2.17 GB | Добавлен: 1 год 7 мес. назад | Торрент скачан:660 раз
Скачать  

28-02-2019 06:55 Мылодрама Скачать торрент  

Информация о фильме

Оригинальное название: Мылодрама
Год выпуска: 2019
Жанр: Комедия
Выпущено: Россия
Студия: Legio Felix по заказу канала Пятница
Продолжительность: 1 x ~ 00:26:00
Перевод: оригинал

Режиссер: Илья Куликов

В ролях: Сергей Бурунов, Ростислав Бершауэр, Григорий Калинин, Юрий Грубник, Маруся Климова, Анна Котова, Кирилл Мелехов, Ольга Дибцева, Сергей Штатнов, Евгений Сармонт, Павел Мисаилов

О фильме Чтобы обрушить акции телеканала, совет директоров принимает решение посадить в кресло генерального директора автозаправщика-недотепу и доверить ему съемки сериала. В короткие сроки горе-начальнику удается создать хаос в эфире и установить свои порядки в медиабизнесе. Но неожиданно сериал, который по плану должен был стать величайшим провалом, начинает иметь грандиозный успех…



Файл

Качество: WEBRip
Формат: AVI
Видео: 720x304 (2.37:1), 25 fps, XviD build 73 ~1213 kbps avg, 0.22 bit/pixel
Аудио: 48 kHz, AC3 Dolby Digital, 2/0 (L,R) ch, ~192 kbps

Релиз от: &
General
Complete name : E:\Mylodrama.2019.WEBRip.GeneralFilm\Mylodrama.e01.avi
Format : AVI
Format/Info : Audio Video Interleave
File size : 248 MiB
Duration : 24 min 27 s
Overall bit rate : 1 416 kb/s
Writing application : VirtualDubMod 1.5.10.3 | www.virtualdub-fr.org || (build 2550/release)
Writing library : VirtualDubMod build 2550/release

Video
ID : 0
Format : MPEG-4 Visual
Format profile : Advanced Simple@L5
Format settings : BVOP1 / Custom Matrix
Format settings, BVOP : 1
Format settings, QPel : No
Format settings, GMC : No warppoints
Format settings, Matrix : Custom
Codec ID : XVID
Codec ID/Hint : XviD
Duration : 24 min 27 s
Bit rate : 1 214 kb/s
Width : 720 pixels
Height : 304 pixels
Display aspect ratio : 2.35:1
Frame rate : 25.000 FPS
Color space : YUV
Chroma subsampling : 4:2:0
Bit depth : 8 bits
Scan type : Progressive
Compression mode : Lossy
Bits/(Pixel*Frame) : 0.222
Stream size : 212 MiB (86%)
Writing library : XviD 73

Audio
ID : 1
Format : AC-3
Format/Info : Audio Coding 3
Format settings, Endianness : Big
Codec ID : 2000
Duration : 24 min 27 s
Bit rate mode : Constant
Bit rate : 192 kb/s
Channel(s) : 2 channels
Channel positions : Front: L R
Sampling rate : 48.0 kHz
Frame rate : 31.250 FPS (1536 SPF)
Bit depth : 16 bits
Compression mode : Lossy
Stream size : 33.6 MiB (14%)
Alignment : Split accross interleaves
Interleave, duration : 40 ms (1.00 video frame)
Interleave, preload duratio : 500 ms
Service kind : Complete Main
скриншот  скриншот  скриншот  
Внимание! Раздача ведётся путём добавления новых серий; при каждом добавлении создаётся новый торрент. Чтобы начать докачку новой серии, пользователям необходимо сделать следующее:
(1) остановить скачивание,
(2) удалить старый торрент у себя из клиента (старые серии удалять не надо),
(3) скачать новый торрент и запустить его у себя в клиенте вместо старого, при этом указать клиенту путь в старую папку куда и должно происходить скачивание новых серий.

Ваш клиент при этом должен произвести хеширование (проверку) старой папки (если не производит сам - помогите ему сделать это), и будет докачивать только те серии которых у вас ещё нет. Старые серии при этом не удаляются, а продолжают раздаваться!

Eсли вы уже удалили старые серии, то предотвратить повторную закачку старых серий можно, отжав галочку в соответствующих местах при запуске нового торрента. По возможности, желательно не удалять старые серии как можно дольше чтобы релизёр не столько продолжал раздавать старые серии, а смог сконцентрироваться на новых.
pb.wtf



Скачать Мылодрама через торрент https://img10.lostpic.net/2019/02/25/a805ea164430430c48e900c5cf5fc994.jpg Скачать фильм Мылодрама через торрент бесплантно в хорошем качестве О фильме Чтобы обрушить акции телеканала, совет директоров принимает решение посадить в кресло генерального директора ... 9.5 10 24
Торрент: Зарегистрирован [2019-02-28 21:43] · скачан: 660 раз
Статус: √ проверено
Размер: 2.17 GB
Как cкачать? Как скачать Мылодрама через торрент | qTorrent

% Раздел Тема Автор DL S | L
Наши сериалы [ 5.47 GB ] Мыло / Сезон: 1 / Серии: 1-9 из 9 [2019 WEB-DLRip 720p] killermax2013 Скачать
5 | 0
Наши сериалы [ 24.07 GB ] Мыло / Сезон: 1 / Серии: 1-9 из 9 [2019 WEBRip 1080p] killermax2013 Скачать
2 | 0
Наши сериалы [ 2.61 GB ] Мыло / Сезон: 1 / Серии: 1-9 из 9 [2019 WEBRip] [Без цензуры] bober100 Скачать
6 | 1
Наши сериалы [ 7.52 GB ] Мыло / Сезон: 1 / Серии: 1-9 из 9 [2019 WEBRip 720p] [Без цензуры] bober100 Скачать
8 | 1
Наши сериалы [ 3.06 GB ] Мыло / Сезон: 1 / Серии: 1-9 из 9 [2019 WEBRip-AVC] bober100 Скачать
2 | 0
Наши сериалы [ 3.16 GB ] Мыло / Сезон: 1 / Серии: 1-9 из 9 [2019 SATRip] bober100 Скачать
1 | 0


Последний раз редактировалось: killermax2013 (2019-02-28 21:43), всего редактировалось 1 раз

28-11-2019 20:33  

Отключить всю рекламу на сайте

28-02-2019 12:20 Мылодрама Скачать торрент  

хорошо ...раздаю, ловите!pb.wtf



06-03-2019 09:19 Мылодрама Скачать торрент  

с цензурой??pb.wtf



07-03-2019 19:12 Мылодрама Скачать торрент  

Tigero4ek писал(а):

с цензурой??

да
как у всехpb.wtf



    Дорогой пользователь! Огромная просьба, поблагодарите релизера, оцените раздачу и оставьте свои комментарий, если Вы скачали Мылодрама через торрент бесплатно! Внесите свою лепту в развитие PiratBit!
    Комментировать посты могут только пользователи прошедшие не сложную регистрацию
    Показать сообщения:    

    Мылодрама через торрент
    Скачать бесплатно Мылодрама
    Мылодрама скачать торрент
    Мылодрама смотреть онлайн
    Cкачать фильм Мылодрама бесплатно
    Мылодрама скачать торрент в хорошем качестве
    Мылодрама смотреть онлайн бесплатно в хорошем качестве


    Вы не можете начинать темы
    Вы не можете отвечать на сообщения
    Вы не можете редактировать свои сообщения
    Вы не можете удалять свои сообщения
    Вы не можете голосовать в опросах
    Вы не можете прикреплять файлы к сообщениям
    Вы можете скачивать файлы