2 сезон

iTunes

MVO

1

2 сезон

iTunes

iTunes

1 сезон

RePack

30

Ultimate

ВАЖНО

ИГРА 18+

pack

RePack

MK11
pack

Легкие деньги

RePack

jed

RePack

fifa19

RePack

RDR2

RePack

NEED FOR SPEED™ PAYBACK

4 сезон

9 сезон

Бесстыжие 9 сезон

Все сериалы

все сериалы на PB.wtf

RePack

FAR CRY 5

Anonymous, добрый вечер, мы не успеваем собрать деньги на оплату серверов за декабрь и январь, помогите нам пожалуйста в это трудное время. В качестве благодарности мы отключим Вам всю рекламу на сайте (укажите свой ник в строку Ваше имя)!

×
  
Magnet ссылка

Конан-варвар в 3Д / Conan the Barbarian 3D (Маркус Ниспел / Marcus Nispel) [2011, Фэнтези, Боевик, Приключения, BDRip, 1080p] OverUnder / Вертикальная стереопара [Дубляж Лицензия] pb.wtf

Конан-варвар в 3Д через торрент pb.wtf

Размер: 21.82 GB | Добавлен: 1 год 10 мес. назад | Торрент скачан:17 раз
Скачать  

28-02-2019 09:15 Конан-варвар в 3Д Скачать торрент  

Конан-варвар / Conan the Barbarian

Год выпуска: 2011
Страна: США(Lionsgate, Millennium Films)
Жанр: Фэнтези, Боевик, Приключения
Продолжительность: 01:52:41

Перевод: Профессиональный дублированный(Лицензия)
Русские субтитры: нет
Режиссер: Маркус Ниспел / Marcus Nispel

В ролях: Джейсон Момоа, Стивен Лэнг, Рэйчел Николс, Роуз МакГоун, Рон Перлман, Нонсо Анози, Саид Тагмауи, Боб Сапп, Лео Ховард, Стив О’Доннелл, Раад Рави, Лайла Руасс

Описание: Природа наделила его силой. Гибель отца сделала его свирепым. Великий киммерийский воин Конан отправляется в дальнее странствие, чтобы совершить отмщение за кровь своего рода. Но поиски, которые начинаются как личная вендетта, вскоре оборачиваются эпической схваткой со сверхъестественными силами, поработившими народы великой Хайбории. Киммерийский воин — последняя надежда на спасение…

Сэмпл: http://sendfile.su/1478508

Качество: BDrip, 1080P
Контейнер: MKV
Формат 3D: OverUnder / Вертикальная стереопара
Порядок ракурсов: левый ракурс первый
Видео кодек: x264
Аудио кодек: DTS
Видео: AVC / High@L5.0 / 23,976 fps / 1920х2160 / 25,0 Мбит/сек
Аудио: Русский / DTS / 48 KHz / 5.1 ch / 1510 Кбит/сек(Лицензия)
Аудио 2: Английский / AC3 / 48 KHz / 5.1 ch / 640 Кбит/сек

ВНИМАНИЕ ! На встроенных ТВ-плеерах работать не будет!!!

ТВ Samsung в названии которого есть надпись Ultra HD , и LG Ultra HD 800 серии, LG C6P, Xiaomi Mi TV 2 воспроизводят полные стереопары встроенными плеерами
Железные плееры на которых воспроизводятся полные стереопары:Popcorn C-200 , Dune HD Smart D1 , Dune HD DUO , Dune HD Smart H1 , Dune HD Smart B1 , Dune HD Max , Dune HD TV-303D, Dune HD TV-102, Dune HD Base 3D, Philips HMP7001, Aura HD, MECOOL BB2
Чтобы изображение было на весь экран в плеере выставляем, если рип 1920х1600 - то выставляем 2.35:1 , если 1920х2160 - то выставляем 16:9
Общее
Уникальный идентификатор : 232745569311822522687903582713840641270 (0xAF192A87E56483A1A9417E8A1143A4F6)
Полное имя : G:\видео\Conan the Barbarian.Rip by SeRoGa00.mkv
Формат : Matroska
Версия формата : Version 2
Размер файла : 21,8 Гбайт
Продолжительность : 1 ч. 52 м.
Общий поток : 27,7 Мбит/сек
Дата кодирования : UTC 2019-02-28 05:26:04
Программа кодирования : mkvmerge v3.4.0 ('Rapunzel') сборка от May 15 2010 09:38:20
Библиотека кодирования : libebml v0.8.0 + libmatroska v0.9.0

Видео
Идентификатор : 1
Формат : AVC
Формат/Информация : Advanced Video Codec
Профиль формата : High@L5.0
Параметр CABAC формата : Да
Параметр ReFrames формата : 4 кадра
Идентификатор кодека : V_MPEG4/ISO/AVC
Продолжительность : 1 ч. 52 м.
Битрейт : 25,0 Мбит/сек
Ширина : 1920 пикселей
Высота : 2160 пикселей
Соотношение сторон : 0,889
Частота кадров : 23,976 кадра/сек
Цветовое пространство : YUV
Субдискретизация насыщенности : 4:2:0
Битовая глубина : 8 бит
Тип развёртки : Прогрессивная
Бит/(Пиксели*Кадры) : 0.251
Размер потока : 19,7 Гбайт (90%)
Заголовок : Rip by SeRoGa00
Библиотека кодирования : x264 core 155 r2901 7d0ff22
Настройки программы : cabac=1 / ref=4 / deblock=1:-3:-3 / analyse=0x3:0x113 / me=umh / subme=10 / psy=1 / psy_rd=1.00:0.15 / mixed_ref=1 / me_range=24 / chroma_me=1 / trellis=2 / 8x8dct=1 / cqm=0 / deadzone=21,11 / fast_pskip=1 / chroma_qp_offset=-3 / threads=18 / lookahead_threads=6 / sliced_threads=0 / nr=0 / decimate=0 / interlaced=0 / bluray_compat=0 / constrained_intra=0 / bframes=10 / b_pyramid=2 / b_adapt=2 / b_bias=0 / direct=3 / weightb=1 / open_gop=0 / weightp=2 / keyint=250 / keyint_min=23 / scenecut=40 / intra_refresh=0 / rc_lookahead=60 / rc=crf / mbtree=1 / crf=16.5 / qcomp=0.60 / qpmin=10 / qpmax=69 / qpstep=4 / vbv_maxrate=40000 / vbv_bufsize=40000 / crf_max=0.0 / nal_hrd=none / filler=0 / ip_ratio=1.40 / aq=1:1.00
Язык : English
Default : Нет
Forced : Нет

Аудио #1
Идентификатор : 2
Формат : DTS
Формат/Информация : Digital Theater Systems
Идентификатор кодека : A_DTS
Продолжительность : 1 ч. 52 м.
Вид битрейта : Постоянный
Битрейт : 1510 Кбит/сек
Каналы : 6 каналов
Расположение каналов : Front: L C R, Side: L R, LFE
Частота : 48,0 КГц
Битовая глубина : 24 бит
Метод сжатия : С потерями
Размер потока : 1,19 Гбайт (5%)
Язык : Russian
Default : Да
Forced : Нет

Аудио #2
Идентификатор : 3
Формат : AC-3
Формат/Информация : Audio Coding 3
Расширение режима : CM (complete main)
Параметр Endianness формата : Big
Идентификатор кодека : A_AC3
Продолжительность : 1 ч. 52 м.
Вид битрейта : Постоянный
Битрейт : 640 Кбит/сек
Каналы : 6 каналов
Расположение каналов : Front: L C R, Side: L R, LFE
Частота : 48,0 КГц
Битовая глубина : 16 бит
Метод сжатия : С потерями
Размер потока : 517 Мбайт (2%)
Язык : English
Default : Нет
Forced : Нет

Меню
00:00:00.000 : en:00:00:00.000
00:00:41.792 : en:00:00:41.792
00:04:49.873 : en:00:04:49.873
00:10:57.866 : en:00:10:57.866
00:17:50.236 : en:00:17:50.236
00:26:35.803 : en:00:26:35.803
00:29:33.897 : en:00:29:33.897
00:38:16.669 : en:00:38:16.669
00:40:59.791 : en:00:40:59.791
00:47:55.414 : en:00:47:55.414
00:52:08.709 : en:00:52:08.709
00:55:03.258 : en:00:55:03.258
01:00:36.550 : en:01:00:36.550
01:08:29.355 : en:01:08:29.355
01:14:18.913 : en:01:14:18.913
01:18:05.180 : en:01:18:05.180
01:22:48.297 : en:01:22:48.297
01:27:19.818 : en:01:27:19.818
01:33:52.293 : en:01:33:52.293
01:41:20.199 : en:01:41:20.199
01:44:03.195 : en:01:44:03.195
скриншот  

скриншот  

скриншот  

скриншот  

скриншот  

скриншот  
pb.wtf



Скачать Конан-варвар в 3Д через торрент https://a.radikal.ru/a19/1902/6f/f04de2948a73.png Скачать фильм Конан-варвар в 3Д через торрент бесплантно в хорошем качестве Описание: Природа наделила его силой. Гибель отца сделала его свирепым. Великий киммерийский воин Конан отправляется в дальнее странствие, ... 5 10 1
Торрент: Зарегистрирован [2019-02-28 09:15] · скачан: 17 раз
Статус: √ проверено
Размер: 21.82 GB
Как cкачать? Как скачать Конан-варвар в 3Д через торрент | UTorrent

28-11-2019 20:33  

Отключить всю рекламу на сайте

    Дорогой пользователь! Огромная просьба, поблагодарите релизера, оцените раздачу и оставьте свои комментарий, если Вы скачали Конан-варвар в 3Д через торрент бесплатно! Внесите свою лепту в развитие PiratBit!
    Комментировать посты могут только пользователи прошедшие не сложную регистрацию
    Показать сообщения:    

    Конан-варвар в 3Д через торрент
    Скачать бесплатно Конан-варвар в 3Д
    Конан-варвар в 3Д скачать торрент
    Конан-варвар в 3Д смотреть онлайн
    Cкачать фильм Конан-варвар в 3Д бесплатно
    Конан-варвар в 3Д скачать торрент в хорошем качестве
    Конан-варвар в 3Д смотреть онлайн бесплатно в хорошем качестве


    Вы не можете начинать темы
    Вы не можете отвечать на сообщения
    Вы не можете редактировать свои сообщения
    Вы не можете удалять свои сообщения
    Вы не можете голосовать в опросах
    Вы не можете прикреплять файлы к сообщениям
    Вы можете скачивать файлы