Ссылка на приватное зеркало всего за 1$. Внимание количество ограничено!!!

OK

1+1

iTunes

мы

OK

1

WEB-DLRip

Джокер

Пифагор

Ведьмак / The Witcher сериал

iTunes

ПШазам

ОК

Оно 2

iTunes

30
pack

Вам бонус

ВАЖНО

!!Акция!!

Alien_RageХит недели

RePack

Resident Evil 21

ИГРА 18+

pack

RePack

jed

RePack

fifa19

RePack

Assassins Creed: Odyssey

RePack

NEED FOR SPEED™ PAYBACK

4 сезон

9 сезон

Бесстыжие 9 сезон

Все сериалы

все сериалы на PB.wtf

RePack

FAR CRY 5
  

Течёт река Волга (Алексей Борисов) [2009, Россия, мелодрама, SATRip-AVC от AVP Studio] pb.wtf

Течёт река Волга через торрент pb.wtf

Размер: 1.09 GB | Добавлен: 10 мес. назад | Торрент скачан:8 раз
Скачать  

28-02-2019 09:37 Течёт река Волга Скачать торрент  

Течёт река Волга
Страна: Россия
Производство: Кинокомпания "Пирамида"

Жанр: мелодрама
Год выпуска: 2009
Продолжительность: 01:31:11

Перевод: Не требуется
Cубтитры: нет
Оригинальная аудиодорожка: русский

Режиссер: Алексей Борисов

В ролях:
Екатерина Олькина, Игнатий Акрачков, Николай Добрынин, Владимир Меньшов, Анвар Халилулаев, Михаил Васьков, Сергей Терещенко...
Об актёрах подробней

Описание:
В заброшенный посёлок на берегу Волги приезжает молодой археолог Андрей, он занимается раскопками. В посёлке остались только дед Роман, у которого Андрей останавливается, и семья Сергея, который живёт тем, что тайком глушит рыбу и продаёт икру. Андрей сначала относится скептически к стараниям деда восстановить затопленную церковь. Он начинает ухаживать за женой Сергея – Людой, пытаясь лёгкой интрижкой скрасить своё времяпрепровождение. Но постепенно с Андреем начинают происходить изменения. Он начинает помогать деду восстанавливать церковь, и его ухаживания за Людой перерастают в серьёзное чувство. Но Люда не одна, её муж готов на всё, чтобы расправиться с Андреем, да и сама Люда испытывает угрызения совести, ведь сын Сергея – Миша привязался к ней, как к родной матери...

Исходник: DVB
Качество видео: SATRip-AVC
Формат видео: MKV

Видео: 704->1005x566 (16:9), 25,000 кадров/сек, H264 ~ 1516 kbps avg, 0.152 bit/pixel
Аудио: 48 kHz, Dolby Digital AC3 2.0, 192 kbps

Раздача от:
Общее
Полное имя : Techyot.reka.Volga.2009.SATRip-AVC_[New-team]_by_AVP_Studio.mkv
Формат : Matroska
Версия формата : Version 2
Размер файла : 1,09 Гбайт
Продолжительность : 1 ч. 31 м.
Общий поток : 1710 Кбит/сек
Дата кодирования : UTC 2019-02-24 15:12:56
Программа кодирования : mkvmerge v6.1.0 ('Old Devil') built on Mar 4 2013 09:10:42
Библиотека кодирования : libebml v1.3.0 + libmatroska v1.4.0

Видео
Идентификатор : 1
Формат : AVC
Формат/Информация : Advanced Video Codec
Профиль формата : High@L4.1
Настройки формата : CABAC / 10 Ref Frames
Параметр CABAC формата : Да
Параметр RefFrames формата : 10 кадров
Идентификатор кодека : V_MPEG4/ISO/AVC
Продолжительность : 1 ч. 31 м.
Битрейт : 1516 Кбит/сек
Ширина : 704 пикселя
Высота : 566 пикселей
Соотношение сторон : 16:9
Режим частоты кадров : Постоянный
Частота кадров : 25,000 кадров/сек
Цветовое пространство : YUV
Субдискретизация насыщенности : 4:2:0
Битовая глубина : 8 бит
Тип развёртки : Прогрессивная
Бит/(Пиксели*Кадры) : 0.152
Размер потока : 968 Мбайт (87%)
Библиотека кодирования : x264 core 157 r2935 545de2f
Настройки программы : cabac=1 / ref=10 / deblock=1:-2:-1 / analyse=0x3:0x113 / me=umh / subme=10 / psy=1 / psy_rd=1.00:0.00 / mixed_ref=1 / me_range=32 / chroma_me=1 / trellis=2 / 8x8dct=1 / cqm=0 / deadzone=21,11 / fast_pskip=1 / chroma_qp_offset=-2 / threads=6 / lookahead_threads=1 / sliced_threads=0 / nr=0 / decimate=0 / interlaced=0 / bluray_compat=0 / constrained_intra=0 / bframes=8 / b_pyramid=2 / b_adapt=2 / b_bias=0 / direct=3 / weightb=1 / open_gop=0 / weightp=2 / keyint=250 / keyint_min=25 / scenecut=40 / intra_refresh=0 / rc=2pass / mbtree=0 / bitrate=1516 / ratetol=1.0 / qcomp=0.60 / qpmin=0 / qpmax=69 / qpstep=4 / cplxblur=20.0 / qblur=0.5 / ip_ratio=1.40 / pb_ratio=1.30 / aq=1:1.00
Default : Да
Forced : Нет

Аудио
Идентификатор : 2
Формат : AC-3
Формат/Информация : Audio Coding 3
Коммерческое название : Dolby Digital
Идентификатор кодека : A_AC3
Продолжительность : 1 ч. 31 м.
Вид битрейта : Постоянный
Битрейт : 192 Кбит/сек
Каналы : 2 канала
Channel layout : L R
Частота : 48,0 КГц
Частота кадров : 31,250 кадров/сек (1536 SPF)
Битовая глубина : 16 бит
Метод сжатия : С потерями
Размер потока : 125 Мбайт (11%)
Default : Да
Forced : Нет
pb.wtf



Скачать Течёт река Волга через торрент http://picplus.ru/img/1902/27/743aaca8.png Скачать фильм Течёт река Волга через торрент бесплантно в хорошем качестве Описание:В заброшенный посёлок на берегу Волги приезжает молодой археолог Андрей, он занимается раскопками. В посёлке остались только дед ... 5 10 1
Торрент: Зарегистрирован [2019-02-28 09:37] · скачан: 8 раз
Статус: √ проверено
Размер: 1.09 GB
Как cкачать? Как скачать Течёт река Волга через торрент | qTorrent

% Раздел Тема Автор DL S | L
Наши фильмы, до 2010 [ 746 MB ] Течёт река Волга [2009 Россия SATRip от AVP Studio] AVP Studio Скачать
1 | 0
Фильмы 2009 [ 1.37 GB ] Течёт река Волга [2009 DVDRip] Flint3 Скачать
1 | 0

28-11-2019 20:33  

Отключить всю рекламу на сайте

    Дорогой пользователь! Огромная просьба, поблагодарите релизера, оцените раздачу и оставьте свои комментарий, если Вы скачали Течёт река Волга через торрент бесплатно! Внесите свою лепту в развитие PiratBit!
    Комментировать посты могут только пользователи прошедшие не сложную регистрацию
    Показать сообщения:    

    Течёт река Волга через торрент
    Скачать бесплатно Течёт река Волга
    Течёт река Волга скачать торрент
    Течёт река Волга смотреть онлайн
    Cкачать фильм Течёт река Волга бесплатно
    Течёт река Волга скачать торрент в хорошем качестве
    Течёт река Волга смотреть онлайн бесплатно в хорошем качестве


    Вы не можете начинать темы
    Вы не можете отвечать на сообщения
    Вы не можете редактировать свои сообщения
    Вы не можете удалять свои сообщения
    Вы не можете голосовать в опросах
    Вы не можете прикреплять файлы к сообщениям
    Вы можете скачивать файлы