новый адрес
Ссылка на приватное зеркало всего за 1$. Внимание количество ограничено!!!

iTunes

1+1

iTunes

мы

WEB-DL

1

iTunes

Чернобыль

iTunes

Ральф против интернета

Лицензия

ПШазам

Лицензия

Оно 2

Лицензия

30
pack

Вам бонус

ВАЖНО

!!Акция!!

Alien_RageХит недели

RePack

Resident Evil 21

ИГРА 18+

pack

RePack

jed

!!Акция!!

Alien_Rage

RePack

fifa19

RePack

Assassins Creed: Odyssey

RePack

NEED FOR SPEED™ PAYBACK

3 сезон

9 сезон

Бесстыжие 9 сезон

Все сериалы

все сериалы на PB.wtf

RePack

FAR CRY 5
Ребята, катастрофически не хватает 1900р. для оплаты серверов за Октябрь (всвязи с блокировками трафик упал в 3 раза), 1-2р., выручайте.
  

Зелёная книга / Green Book (Питер Фаррелли) [2018, комедия, драма, биография, HDRip-AVC] [Dub] [iTunes] pb.wtf

Зелёная книга через торрент pb.wtf

Раздают: 5 [ 0 KB/s ]
Размер: 2.2 GB | Добавлен: 9 мес. назад | Торрент скачан:770 раз
Скачать  

28-02-2019 10:13 Зелёная книга Скачать торрент  


Зелёная книга / Green Book

«Inspired by a True Friendship»

Страна: США
Жанр: комедия, драма, биография
Год выпуска: 2018
Продолжительность: 02:10:07
Перевод: Профессиональный (дублированный) iTunes
Субтитры: Русские (полные, форсированные), английские
Режиссер: Питер Фаррелли / Peter Farrelly
В ролях: Вигго Мортенсен, Махершала Али, Линда Карделлини, Себастьян Манискалко, Димитар Маринов, Майк Хаттон, П.Дж. Бирн, Джозеф Кортезе, Мэгги Никсон, Фон Льюис
Описание: Утонченный светский лев, богатый и талантливый музыкант нанимает в качестве водителя и телохранителя человека, который менее всего подходит для этой работы. Тони «Болтун» - вышибала, не умеющий держать рот на замке и пользоваться столовыми приборами, зато он хорошо работает кулаками. Это турне навсегда изменит жизнь обоих.


Качество видео: HDRip-AVC
Формат видео: MKV
Видео: MPEG-4 AVC, 720x360, 23.976 fps, ~1700 kbps avg
Аудио 1: 48 kHz, AC3 Dolby Digital, 6 ch, ~384 kbps avg - Rus
Аудио 2: 48 kHz, AC3 Dolby Digital, 6 ch, ~448 kbps avg - Eng
General
Unique ID : 114231578510790667994514202351858651031 (0x55F033A6DC8F18FD61D2FD1B105C8F97)
Complete name : E:\INTERNET\Green.Book.2018.BRRip.AC3.X264.mkv
Format : Matroska
Format version : Version 4 / Version 2
File size : 2.20 GiB
Duration : 2 h 10 min
Overall bit rate : 2 415 kb/s
Encoded date : UTC 2019-02-28 09:14:50
Writing application : mkvmerge v29.0.0 ('Like It Or Not') 64-bit
Writing library : libebml v1.3.6 + libmatroska v1.4.9

Video
ID : 1
Format : AVC
Format/Info : Advanced Video Codec
Format profile : High@L4.1
Format settings : CABAC / 6 Ref Frames
Format settings, CABAC : Yes
Format settings, RefFrames : 6 frames
Codec ID : V_MPEG4/ISO/AVC
Duration : 2 h 10 min
Bit rate : 1 600 kb/s
Width : 720 pixels
Height : 360 pixels
Display aspect ratio : 2.000
Frame rate mode : Constant
Frame rate : 23.976 (24000/1001) FPS
Color space : YUV
Chroma subsampling : 4:2:0
Bit depth : 8 bits
Scan type : Progressive
Bits/(Pixel*Frame) : 0.257
Stream size : 1.40 GiB (64%)
Writing library : x264 core 152 r2851 ba24899
Encoding settings : cabac=1 / ref=6 / deblock=1:-3:-3 / analyse=0x3:0x113 / me=umh / subme=7 / psy=1 / psy_rd=1.00:0.00 / mixed_ref=1 / me_range=24 / chroma_me=1 / trellis=2 / 8x8dct=1 / cqm=0 / deadzone=21,11 / fast_pskip=1 / chroma_qp_offset=-2 / threads=32 / lookahead_threads=2 / sliced_threads=0 / nr=0 / decimate=0 / interlaced=0 / bluray_compat=0 / constrained_intra=0 / bframes=6 / b_pyramid=2 / b_adapt=2 / b_bias=0 / direct=1 / weightb=1 / open_gop=0 / weightp=2 / keyint=250 / keyint_min=23 / scenecut=40 / intra_refresh=0 / rc_lookahead=40 / rc=abr / mbtree=1 / bitrate=1600 / ratetol=1.0 / qcomp=0.60 / qpmin=0 / qpmax=69 / qpstep=4 / ip_ratio=1.40 / aq=1:1.00
Default : Yes
Forced : No

Audio #1
ID : 2
Format : AC-3
Format/Info : Audio Coding 3
Format settings, Endianness : Big
Codec ID : A_AC3
Duration : 2 h 10 min
Bit rate mode : Constant
Bit rate : 384 kb/s
Channel(s) : 6 channels
Channel positions : Front: L C R, Side: L R, LFE
Sampling rate : 48.0 kHz
Frame rate : 31.250 FPS (1536 SPF)
Bit depth : 16 bits
Compression mode : Lossy
Stream size : 357 MiB (16%)
Title : iTunes
Language : Russian
Service kind : Complete Main
Default : Yes
Forced : Yes

Audio #2
ID : 3
Format : AC-3
Format/Info : Audio Coding 3
Format settings, Endianness : Big
Codec ID : A_AC3
Duration : 2 h 10 min
Bit rate mode : Constant
Bit rate : 448 kb/s
Channel(s) : 6 channels
Channel positions : Front: L C R, Side: L R, LFE
Sampling rate : 48.0 kHz
Frame rate : 31.250 FPS (1536 SPF)
Bit depth : 16 bits
Compression mode : Lossy
Stream size : 417 MiB (19%)
Language : English
Service kind : Complete Main
Default : No
Forced : No

Text #1
ID : 4
Format : UTF-8
Codec ID : S_TEXT/UTF8
Codec ID/Info : UTF-8 Plain Text
Title : Forced
Language : Russian
Default : Yes
Forced : Yes

Text #2
ID : 5
Format : UTF-8
Codec ID : S_TEXT/UTF8
Codec ID/Info : UTF-8 Plain Text
Title : Full
Language : Russian
Default : No
Forced : No

Text #3
ID : 6
Format : UTF-8
Codec ID : S_TEXT/UTF8
Codec ID/Info : UTF-8 Plain Text
Language : English
Default : No
Forced : No

Menu
00:00:00.000 : en:00:00:00.000
00:05:43.009 : en:00:05:43.009
00:11:50.043 : en:00:11:50.043
00:18:17.805 : en:00:18:17.805
00:23:46.675 : en:00:23:46.675
00:28:37.382 : en:00:28:37.382
00:34:38.785 : en:00:34:38.785
00:41:13.304 : en:00:41:13.304
00:46:44.593 : en:00:46:44.593
00:54:19.173 : en:00:54:19.173
01:02:42.342 : en:01:02:42.342
01:10:42.655 : en:01:10:42.655
01:16:16.155 : en:01:16:16.155
01:24:30.274 : en:01:24:30.274
01:30:37.724 : en:01:30:37.724
01:36:53.266 : en:01:36:53.266
01:44:56.081 : en:01:44:56.081
01:51:12.124 : en:01:51:12.124
01:54:38.872 : en:01:54:38.872
02:02:25.505 : en:02:02:25.505
скриншот   скриншот   скриншот  
pb.wtf



Скачать Зелёная книга через торрент https://i109.fastpic.ru/big/2019/0228/4e/d9b6361886b80a4c91a8f8e8021dfa4e.jpg Скачать фильм Зелёная книга через торрент бесплантно в хорошем качестве Описание: Утонченный светский лев, богатый и талантливый музыкант нанимает в качестве водителя и телохранителя человека, который менее ... 10 10 8
Торрент: Зарегистрирован [2019-02-28 10:13] · скачан: 770 раз
Статус: √ проверено
Размер: 2.2 GB
Как cкачать? Как скачать Зелёная книга через торрент | qTorrent

% Раздел Тема Автор DL S | L
Фильмы (WEB-DL 720p, 1080p) [ 5.65 GB ] Зеленая книга / Green Book [2018 биография WEB-DL 720p] [AMAZON] MVO [HDRezka Studio] + bober100 Скачать
4 | 0
Фильмы с авторской озвучкой [ 2.01 GB ] Зелёная книга / Green Book [2018 биография WEB-DLRip 1080p] [AVO] killermax2013 Скачать
1 | 0
Фильмы [HD 720p, 1080p] (Хороший звук DUB, MVO) [ 18.27 GB ] Зеленая книга / Green Book [2018 биография BDRip 1080p] MVO [HDRezka Studio] +DUB [] +AVO [Д.Есарев] bober100 Скачать
2 | 0
Ultra HD (UHD: 2K, 4K, 8K) — видео сверхвысокой чёткости [ 42.32 GB ] Зеленая книга / Green Book [2018 биография UHD BDRip 2160p] [SDR] DUB [Blu-ray CEE] + MVO [HDRezka Studio] sheker187 Скачать
1 | 0
Ultra HD (UHD: 2K, 4K, 8K) — видео сверхвысокой чёткости [ 54.23 GB ] Зеленая книга / Green Book [2018 биография UHD BDRemux 2160p] DUB [] + MVO [HDRezka Studio] sheker187 Скачать
1 | 0
Ultra HD (UHD: 2K, 4K, 8K) — видео сверхвысокой чёткости [ 63.36 GB ] Зеленая книга / Green Book [2018 биография UHD Blu-ray 2160p] DUB [] sheker187 Скачать
1 | 0
Фильмы (WEB-DL 720p, 1080p) [ 9.5 GB ] Зеленая книга / Green Book [2018 биография WEB-DL 1080p] [AMAZON] MVO [HDRezka Studio] + bober100 Скачать
2 | 0

28-11-2019 20:33  

Отключить всю рекламу на сайте

02-03-2019 11:44 Зелёная книга Скачать торрент  

четкий фильм pb.wtf



08-03-2019 19:07 Зелёная книга Скачать торрент  

Фильм отличный. Жаль,что всё таки впихнули сцену с гомосятиной.pb.wtf



    Дорогой пользователь! Огромная просьба, поблагодарите релизера, оцените раздачу и оставьте свои комментарий, если Вы скачали Зелёная книга через торрент бесплатно! Внесите свою лепту в развитие PiratBit!
    Комментировать посты могут только пользователи прошедшие не сложную регистрацию
    Показать сообщения:    

    Зелёная книга через торрент
    Скачать бесплатно Зелёная книга
    Зелёная книга скачать торрент
    Зелёная книга смотреть онлайн
    Cкачать фильм Зелёная книга бесплатно
    Зелёная книга скачать торрент в хорошем качестве
    Зелёная книга смотреть онлайн бесплатно в хорошем качестве


    Вы не можете начинать темы
    Вы не можете отвечать на сообщения
    Вы не можете редактировать свои сообщения
    Вы не можете удалять свои сообщения
    Вы не можете голосовать в опросах
    Вы не можете прикреплять файлы к сообщениям
    Вы можете скачивать файлы