Ссылка на приватное зеркало нашего сайта всего за 1$. Внимание количество ограничено!!!

2 сезон

iTunes

1 сезон

1

2 сезон

2 сезон

iTunes

1 сезон

RePack

30

Новинка

ВАЖНО

ИГРА 18+

pack

RePack

MK11
pack

Забери бонус

RePack

jed

!!Акция!!

Alien_Rage

RePack

fifa19

RePack

Assassins Creed: Odyssey

RePack

NEED FOR SPEED™ PAYBACK

4 сезон

9 сезон

Бесстыжие 9 сезон

Все сериалы

все сериалы на PB.wtf

RePack

FAR CRY 5
  

Дом, который построил Джек / The House That Jack Built (Ларс фон Триер) [2018, ужасы, триллер, драма, WEB-DL 1080p] DUB [iTunes] pb.wtf

Дом, который построил Джек через торрент pb.wtf

Раздают: 2 [ 0 KB/s ]
Размер: 5.25 GB | Добавлен: 1 год 9 мес. назад | Торрент скачан:709 раз
Скачать  

28-02-2019 10:31 Дом, который построил Джек Скачать торрент  

Дом, который построил Джек / The House That Jack Built
Год выпуска: 2018
Страна: Дания, Франция, Германия, Швеция
Жанр: ужасы, триллер, драма
Продолжительность: 02:31:08
Перевод: Дублированный | iTunes
Субтитры: отсутствуют

Режиссер: Ларс фон Триер

rating

В ролях:

Мэтт Диллон, Бруно Ганц, Ума Турман, Шиван Фэллон, Софи Гробёль, Райли Кио, Джереми Дэвис, Эдвард Спелирс, Дэвид Бэйли, Ю Джи-тхэ

Описание:

История серийного убийцы по имени Джек разворачивается в Америке 70-х. За 12 лет блестящей «карьеры» Джеку встретятся назойливая попутчица, наивная подружка и другие очаровательные в своей глупости жертвы. Пять невероятных, до жути изобретательных и порой до смеха абсурдных убийств, к каждому из которых Джек относится как к настоящему произведению искусства.

Качество: WEB-DL 1080p
Формат: MKV

Видео: MPEG-4 AVC, 4492 Кбит/с, 1920x804
Аудио: Русский (AC3, 6 ch, 384 Кбит/с)
скриншот  скриншот  скриншот  скриншот  

Общее
Уникальный идентификатор : 190182480827814668094672628098692113679 (0x8F13D03FBA662DCFB50CEC84EEB5650F)
Полное имя : E:\The.House.That.Jack.Built.2.2018.WEB-DL1080p.ELEKTRI4KA.UNIONGANG.mkv
Формат : Matroska
Версия формата : Version 2
Размер файла : 5,25 Гбайт
Продолжительность : 2 ч. 31 м.
Общий поток : 4975 Кбит/сек
Название фильма : ELEKTRI4KA.UNIONGANG
Дата кодирования : UTC 2019-02-27 21:24:03
Программа кодирования : mkvmerge v7.8.0 ('River Man') 32bit built on Apr 3 2015 12:11:22
Библиотека кодирования : libebml v1.3.1 + libmatroska v1.4.2

Видео
Идентификатор : 2
Формат : AVC
Формат/Информация : Advanced Video Codec
Профиль формата : High@L4
Настройки формата : CABAC / 5 Ref Frames
Параметр CABAC формата : Да
Параметр RefFrames формата : 5 кадров
Идентификатор кодека : V_MPEG4/ISO/AVC
Продолжительность : 2 ч. 31 м.
Битрейт : 4492 Кбит/сек
Ширина : 1920 пикселей
Высота : 804 пикселя
Соотношение сторон : 2,40:1
Режим частоты кадров : Постоянный
Частота кадров : 24,000 кадра/сек
Цветовое пространство : YUV
Субдискретизация насыщенности : 4:2:0
Битовая глубина : 8 бит
Тип развёртки : Прогрессивная
Бит/(Пиксели*Кадры) : 0.121
Размер потока : 4,74 Гбайт (90%)
Язык : English
Default : Да
Forced : Нет
Цветовой диапазон : Limited
Основные цвета : BT.709
Характеристики трансфера : BT.709
Коэффициенты матрицы : BT.709

Аудио
Идентификатор : 1
Формат : AC-3
Формат/Информация : Audio Coding 3
Идентификатор кодека : A_AC3
Продолжительность : 2 ч. 31 м.
Вид битрейта : Постоянный
Битрейт : 384 Кбит/сек
Каналы : 6 каналов
Расположение каналов : Front: L C R, Side: L R, LFE
Частота : 48,0 КГц
Частота кадров : 31,250 кадров/сек (1536 SPF)
Битовая глубина : 16 бит
Метод сжатия : С потерями
Размер потока : 415 Мбайт (8%)
Заголовок : ELEKTRI4KA.UNIONGANG
Язык : Russian
ServiceKind/String : Complete Main
Default : Да
Forced : Нет

pb.wtf



Скачать Дом, который построил Джек через торрент http://img14.lostpic.net/2018/12/11/8560e572fb06eca55dc94c41e90da224.jpg Скачать фильм Дом, который построил Джек через торрент бесплантно в хорошем качестве Описание: История серийного убийцы по имени Джек разворачивается в Америке 70-х. За 12 лет блестящей «карьеры» Джеку встретятся назойливая ... 10 10 9
Info! Золотая раздача, скачанное не засчитывается.
Торрент: Зарегистрирован [2019-02-28 10:31] · скачан: 709 раз
Статус: √ проверено
Размер: 5.25 GB
Как cкачать? Как скачать Дом, который построил Джек через торрент | qTorrent

% Раздел Тема Автор DL S | L
Фильмы 2018 [DVDrip, WEB-DLRip, HDrip] (DUB, MVO) [ 1.46 GB ] Дом который построил Джек / The House That Jack Built [2018 BDRip] bober100 Скачать
2 | 0
Фильмы (Blu-ray, BD-Remux, HDDVD) [ 34.72 GB ] Дом который построил Джек / The House That Jack Built [2018 BDRemux 1080p] + AVO [М. Яроцкий] sheker187 Скачать
1 | 0
Фильмы 2018 [DVDrip, WEB-DLRip, HDrip] (DUB, MVO) [ 2.25 GB ] Дом который построил Джек / The House That Jack Built [2018 BDRip-AVC] bober100 Скачать
3 | 0
Фильмы [HD 720p, 1080p] (Хороший звук DUB, MVO) [ 5.88 GB ] Дом который построил Джек / The House That Jack Built [2018 BDRip 720p] bober100 Скачать
1 | 0
Фильмы [HD 720p, 1080p] (Хороший звук DUB, MVO) [ 11.73 GB ] Дом который построил Джек / The House That Jack Built [2018 BDRip 1080p] bober100 Скачать
4 | 0
Фильмы 2018 [DVDrip, WEB-DLRip, HDrip] (DUB, MVO) [ 2.12 GB ] Дом который построил Джек / The House That Jack Built [2018 BDRip] bober100 Скачать
1 | 0
Фильмы (Blu-ray, BD-Remux, HDDVD) [ 30.13 GB ] Дом который построил Джек / The House That Jack Built [2018 BD Remux 1080p] bober100 Скачать
1 | 0

28-11-2019 20:33  

Отключить всю рекламу на сайте

    Дорогой пользователь! Огромная просьба, поблагодарите релизера, оцените раздачу и оставьте свои комментарий, если Вы скачали Дом, который построил Джек через торрент бесплатно! Внесите свою лепту в развитие PiratBit!
    Комментировать посты могут только пользователи прошедшие не сложную регистрацию
    Показать сообщения:    

    Дом, который построил Джек через торрент
    Скачать бесплатно Дом, который построил Джек
    Дом, который построил Джек скачать торрент
    Дом, который построил Джек смотреть онлайн
    Cкачать фильм Дом, который построил Джек бесплатно
    Дом, который построил Джек скачать торрент в хорошем качестве
    Дом, который построил Джек смотреть онлайн бесплатно в хорошем качестве


    Вы не можете начинать темы
    Вы не можете отвечать на сообщения
    Вы не можете редактировать свои сообщения
    Вы не можете удалять свои сообщения
    Вы не можете голосовать в опросах
    Вы не можете прикреплять файлы к сообщениям
    Вы можете скачивать файлы