Ссылка на приватное зеркало нашего сайта всего за 1$. Внимание количество ограничено!!!

2 сезон

iTunes

1 сезон

1

2 сезон

2 сезон

iTunes

1 сезон

RePack

30

Новинка

ВАЖНО

ИГРА 18+

pack

RePack

MK11
pack

Забери бонус

RePack

jed

!!Акция!!

Alien_Rage

RePack

fifa19

RePack

Assassins Creed: Odyssey

RePack

NEED FOR SPEED™ PAYBACK

4 сезон

9 сезон

Бесстыжие 9 сезон

Все сериалы

все сериалы на PB.wtf

RePack

FAR CRY 5
  

Враг внутри / The Enemy Within / Сезон: 1 / Серии: 1-13 из 13 (Марисоль Торрес, Чарльз Бисон, Марк Пеллингтон) [2019, США, драма, WEB-DL 720p] MVO [Jaskier] pb.wtf

Враг внутри через торрент pb.wtf

Размер: 15.86 GB | Добавлен: 1 год 4 мес. назад | Торрент скачан:3 раза
Скачать  

28-02-2019 14:48 Враг внутри Скачать торрент  

Враг внутри / The Enemy Within Год выпуска: 2019
Страна: США
Жанр:драма
Продолжительность: ~ 00:45:00
Перевод: Профессиональный (многоголосый закадровый) | Jaskier

Режиссёр: Марисоль Торрес, Чарльз Бисон, Марк Пеллингтон

В ролях: Джеймс Карпинелло, Моррис Честнат, Кассандра Фриман, Раза Джеффри, Ной Бин, Дженнифер Карпентер, Келли Гарнер, Корал Пенья, Ноа Миллс

Описание: Эрику Шепард — бывшего агента ЦРУ и изменницу родины — освобождают из тюрьмы. Вместе с агентом ФБР Уиллом Китоном она должна будет найти опасного преступника, который хорошо ей знаком.

rating

Качество: WEB-DL 720p
Формат: MKV

Видео: 1280x720 (16:9) | X264 | ~5648 kbps | 23.976 fps
Аудио Rus: AC3, 48 kHz, 6 ch, 384 Кбит/сек
Аудио Eng: AC3, 48 kHz, 6 ch, 384 Кбит/сек


Реклама: Присутствует звуковая (два раза в начале и конце по 10 сек.)
Общее
Уникальный идентификатор : 51093227664530246329220121869398151488 (0x2670329D37B96DC26F946C2C68099140)
Полное имя : G:\Jaskier\The.Enemy.Within Season 1 (WEB-DL l 720p l Jaskier)\The.Enemy.Within.S01E01.WEB-DL.720p.Jaskier.mkv
Формат : Matroska
Версия формата : Version 4 / Version 2
Размер файла : 1,96 Гбайт
Продолжительность : 43 м. 42 с.
Режим общего битрейта : Постоянный
Общий поток : 6418 Кбит/сек
Дата кодирования : UTC 2019-02-28 12:36:57
Программа кодирования : mkvmerge v28.0.0 ('Voice In My Head') 64-bit
Библиотека кодирования : libebml v1.3.6 + libmatroska v1.4.9

Видео
Идентификатор : 1
Формат : AVC
Формат/Информация : Advanced Video Codec
Профиль формата : High@L3.1
Настройки формата : CABAC / 4 Ref Frames
Параметр CABAC формата : Да
Параметр RefFrames формата : 4 кадра
Идентификатор кодека : V_MPEG4/ISO/AVC
Продолжительность : 43 м. 42 с.
Вид битрейта : Постоянный
Битрейт : 5648 Кбит/сек
Номинальный битрейт : 6000 Кбит/сек
Ширина : 1280 пикселей
Высота : 720 пикселей
Соотношение сторон : 16:9
Режим частоты кадров : Постоянный
Частота кадров : 23,976 (24000/1001) кадра/сек
Цветовое пространство : YUV
Субдискретизация насыщенности : 4:2:0
Битовая глубина : 8 бит
Тип развёртки : Прогрессивная
Бит/(Пиксели*Кадры) : 0.256
Размер потока : 1,72 Гбайт (88%)
Default : Да
Forced : Нет
Цветовой диапазон : Limited
Основные цвета : BT.709
Характеристики трансфера : BT.709
Коэффициенты матрицы : BT.709

Аудио #1
Идентификатор : 2
Формат : AC-3
Формат/Информация : Audio Coding 3
Идентификатор кодека : A_AC3
Продолжительность : 43 м. 42 с.
Вид битрейта : Постоянный
Битрейт : 384 Кбит/сек
Каналы : 6 каналов
Расположение каналов : Front: L C R, Side: L R, LFE
Частота : 48,0 КГц
Частота кадров : 31,250 кадров/сек (1536 SPF)
Битовая глубина : 16 бит
Метод сжатия : С потерями
Размер потока : 120 Мбайт (6%)
Язык : Russian
ServiceKind/String : Complete Main
Default : Да
Forced : Нет

Аудио #2
Идентификатор : 3
Формат : AC-3
Формат/Информация : Audio Coding 3
Идентификатор кодека : A_AC3
Продолжительность : 43 м. 42 с.
Вид битрейта : Постоянный
Битрейт : 384 Кбит/сек
Каналы : 6 каналов
Расположение каналов : Front: L C R, Side: L R, LFE
Частота : 48,0 КГц
Частота кадров : 31,250 кадров/сек (1536 SPF)
Битовая глубина : 16 бит
Метод сжатия : С потерями
Размер потока : 120 Мбайт (6%)
Язык : English
ServiceKind/String : Complete Main
Default : Нет
Forced : Нет
скриншот  скриншот  скриншот  
Когда раздача ведётся путём добавления новых серий, при каждом добавлении создётся новый торрент. Чтобы начать докачку новой серии, пользователям необходимо сделать следующее:
(1) остановить скачивание,
(2) удалить старый торрент у себя из клиента (старые серии удалять не надо),
(3) скачать новый торрент и запустить его у себя в клиенте вместо старого, при этом указать клиенту путь в старую папку, куда и должно происходить скачивание новых серий.
Ваш клиент при этом должен произвести хеширование (проверку) старой папки (если не производит сам - помогите ему сделать это), и будет докачивать только те серии, которых у вас ещё нет. Старые серии при этом не удаляются, а продолжают раздаваться!
Eсли вы уже удалили старые серии, то предотвратить повторную закачку старых серий можно, отжав галочку в соответсвующих местах при запуске нового торрента. По возможности, желательно не удалять старые серии как можно дольше, чтобы релизёр не столько продолжал раздавать старые серии, а смог сконцентрироваться на новых.
pb.wtf



Скачать Враг внутри через торрент https://i110.fastpic.ru/big/2019/0228/45/dbb8d604ca80508864a3bd9694e47e45.png Скачать фильм Враг внутри через торрент бесплантно в хорошем качестве Описание: Эрику Шепард — бывшего агента ЦРУ и изменницу родины — освобождают из тюрьмы. Вместе с агентом ФБР Уиллом Китоном она должна ... 8.5 10 4
Торрент: Зарегистрирован [2019-07-23 20:40] · скачан: 3 раз
Статус: √ проверено
Размер: 15.86 GB
Как cкачать? Как скачать Враг внутри через торрент | qTorrent

% Раздел Тема Автор DL S | L
Зарубежные сериалы [ 40.73 GB ] Враг внутри / The Enemy Within / Сезон: 1 / Серии: 1-13 из 13 [2019 WEB-DL 1080p] [MVO] killermax2013 Скачать
1 | 0
Зарубежные сериалы [ 41.66 GB ] Враг внутри / The Enemy Within / Сезон: 1 / Серии: 1-13 из 13 [2019 WEB-DL 1080p] [MVO] killermax2013 Скачать
1 | 0
Зарубежные сериалы [ 7.25 GB ] Враг внутри / The Enemy Within / Сезон: 1 / Серии: 1-13 из 13 [2019 WEB-DLRip] MVO [Jaskier] bober100 Скачать
1 | 0

28-11-2019 20:33  

Отключить всю рекламу на сайте

    Дорогой пользователь! Огромная просьба, поблагодарите релизера, оцените раздачу и оставьте свои комментарий, если Вы скачали Враг внутри через торрент бесплатно! Внесите свою лепту в развитие PiratBit!
    Комментировать посты могут только пользователи прошедшие не сложную регистрацию
    Показать сообщения:    

    Враг внутри через торрент
    Скачать бесплатно Враг внутри
    Враг внутри скачать торрент
    Враг внутри смотреть онлайн
    Cкачать фильм Враг внутри бесплатно
    Враг внутри скачать торрент в хорошем качестве
    Враг внутри смотреть онлайн бесплатно в хорошем качестве


    Вы не можете начинать темы
    Вы не можете отвечать на сообщения
    Вы не можете редактировать свои сообщения
    Вы не можете удалять свои сообщения
    Вы не можете голосовать в опросах
    Вы не можете прикреплять файлы к сообщениям
    Вы можете скачивать файлы