Ссылка на приватное зеркало нашего сайта всего за 1$. Внимание количество ограничено!!!

2 сезон

iTunes

1 сезон

1

2 сезон

2 сезон

iTunes

1 сезон

RePack

30

Ultimate

ВАЖНО

ИГРА 18+

pack

RePack

MK11
pack

Забери бонус

RePack

jed

!!Акция!!

Alien_Rage

RePack

fifa19

RePack

Assassins Creed: Odyssey

RePack

NEED FOR SPEED™ PAYBACK

4 сезон

9 сезон

Бесстыжие 9 сезон

Все сериалы

все сериалы на PB.wtf

RePack

FAR CRY 5
  

Перевал / Der Pass / Pagan Peak / Сезон: 1 / Серии: 1-8 из 8 (Сирил Босс, Филипп Штеннерт) [2018, триллер, драма, криминал, WEBRip 1080p] DVO [Кубик в Кубе] pb.wtf

Перевал через торрент pb.wtf

Размер: 13.05 GB | Добавлен: 1 год 8 мес. назад | Торрент скачан:227 раз
Скачать  

01-03-2019 02:59 Перевал Скачать торрент  

Перевал / Der Pass / Pagan Peak Год выпуска: 2018
Страна: Германия, Австрия
Жанр: триллер, драма, криминал
Продолжительность: ~ 00:40:00 серия
Перевод: Профессиональный (двухголосый) | Кубик в Кубе
Субтитры: отсутствуют

Режиссер: Сирил Босс, Филипп Штеннерт

rating


В ролях:

Юлия Йенч, Николас Офчарек, Франц Хартвиг, Ханно Коффлер, Джулиан Лооман, Наташа Петрович, Тереза Мартини, Катрин Фильцен, Ким Гиршнер

Описание:

В заснеженных Альпах, на самой границе между Германией и Австрией, полиция находит труп мужчины. При осмотре выясняется: мужчину приволокли сюда уже мертвым, у него поддельные документы, а в руках - хвост из конского волоса. Расследовать загадочное преступление берутся два детектива из соседствующих стран.
Она - жизнелюбивая немка Элли Стокер, которая пытается делать свою жуткую работу легко. Он - мрачный алкоголик Гедеон Винтер, оказавшийся на самом дне жизни. Вдвоем они включаются в расследование, которое все больше напоминает опасную игру, затеянную маньяком-убийцей, - и заодно демонстрируют, как важно при всей разности темпераментов и образов жизни держаться вместе.

Качество: WEBRip 1080p
Формат: MP4

Видео: MPEG-4 AVC, ~ 4500 kbps, 1920x1080 (16:9), 29.970 fps
Аудио: AAC, 44,1 КГц, 2 ch, 128 kbps | Rus
скриншот   скриншот   скриншот   скриншот   скриншот  

Общее
Полное имя : E:\Перевал 1 сезон\Der.Pass.s01e01.WEBRip.1080p.KvK.mp4
Формат : MPEG-4
Профиль формата : Base Media
Идентификатор кодека : isom (isom/iso2/avc1/mp41)
Размер файла : 1,46 Гбайт
Продолжительность : 43 м. 0 с.
Общий поток : 4875 Кбит/сек
Программа кодирования : Lavf57.84.100

Видео
Идентификатор : 1
Формат : AVC
Формат/Информация : Advanced Video Codec
Профиль формата : High@L4
Настройки формата : CABAC / 4 Ref Frames
Параметр CABAC формата : Да
Параметр RefFrames формата : 4 кадра
Идентификатор кодека : avc1
Идентификатор кодека/Информация : Advanced Video Coding
Продолжительность : 43 м. 0 с.
Битрейт : 4739 Кбит/сек
Ширина : 1920 пикселей
Высота : 1080 пикселей
Соотношение сторон : 16:9
Режим частоты кадров : Постоянный
Частота кадров : 29,970 (30000/1001) кадров/сек
Цветовое пространство : YUV
Субдискретизация насыщенности : 4:2:0
Битовая глубина : 8 бит
Тип развёртки : Прогрессивная
Бит/(Пиксели*Кадры) : 0.076
Размер потока : 1,42 Гбайт (97%)
Библиотека кодирования : x264 core 148 r2762 90a61ec
Настройки программы : cabac=1 / ref=1 / deblock=1:0:0 / analyse=0x3:0x113 / me=hex / subme=2 / psy=1 / psy_rd=1.00:0.00 / mixed_ref=0 / me_range=16 / chroma_me=1 / trellis=0 / 8x8dct=1 / cqm=0 / deadzone=21,11 / fast_pskip=1 / chroma_qp_offset=0 / threads=12 / lookahead_threads=4 / sliced_threads=0 / nr=0 / decimate=1 / interlaced=0 / bluray_compat=0 / constrained_intra=0 / bframes=3 / b_pyramid=2 / b_adapt=1 / b_bias=0 / direct=1 / weightb=1 / open_gop=0 / weightp=1 / keyint=250 / keyint_min=25 / scenecut=40 / intra_refresh=0 / rc_lookahead=10 / rc=crf / mbtree=1 / crf=16.0 / qcomp=0.60 / qpmin=0 / qpmax=69 / qpstep=4 / ip_ratio=1.40 / aq=1:1.00

Аудио
Идентификатор : 2
Формат : AAC
Формат/Информация : Advanced Audio Codec
Профиль формата : LC
Идентификатор кодека : mp4a-40-2
Продолжительность : 43 м. 0 с.
Вид битрейта : Постоянный
Битрейт : 128 Кбит/сек
Каналы : 2 канала
Расположение каналов : Front: L R
Частота : 44,1 КГц
Частота кадров : 43,066 кадра/сек (1024 SPF)
Метод сжатия : С потерями
Размер потока : 39,4 Мбайт (3%)
Заголовок : simple_aac_recording
Default : Да
AlternateGroup/String : 1

pb.wtf



Скачать Перевал через торрент https://i.imgur.com/eq6FEPG.jpg Скачать фильм Перевал через торрент бесплантно в хорошем качестве Описание: В заснеженных Альпах, на самой границе между Германией и Австрией, полиция находит труп мужчины. При осмотре выясняется: мужчину ... 9.5 10 14
Info! Золотая раздача, скачанное не засчитывается.
Торрент: Зарегистрирован [2019-03-01 02:59] · скачан: 227 раз
Статус: √ проверено
Размер: 13.05 GB
Как cкачать? Как скачать Перевал через торрент | qTorrent

% Раздел Тема Автор DL S | L
Зарубежные сериалы [ 4.83 GB ] Перевал / Der Pass / Pagan Peak / Сезон: 1 / Серии: 1-8 из 8 [2019 WEBRip] [DVO] killermax2013 Скачать
2 | 0

28-11-2019 20:33  

Отключить всю рекламу на сайте

06-03-2019 07:18 Перевал Скачать торрент  

Дергается изображение, что на компе, что на самсунге 8 серии.pb.wtf



15-03-2019 18:23 Перевал Скачать торрент  

Я думал только у меня картинка дерганая.pb.wtf



    Дорогой пользователь! Огромная просьба, поблагодарите релизера, оцените раздачу и оставьте свои комментарий, если Вы скачали Перевал через торрент бесплатно! Внесите свою лепту в развитие PiratBit!
    Комментировать посты могут только пользователи прошедшие не сложную регистрацию
    Показать сообщения:    

    Перевал через торрент
    Скачать бесплатно Перевал
    Перевал скачать торрент
    Перевал смотреть онлайн
    Cкачать фильм Перевал бесплатно
    Перевал скачать торрент в хорошем качестве
    Перевал смотреть онлайн бесплатно в хорошем качестве


    Вы не можете начинать темы
    Вы не можете отвечать на сообщения
    Вы не можете редактировать свои сообщения
    Вы не можете удалять свои сообщения
    Вы не можете голосовать в опросах
    Вы не можете прикреплять файлы к сообщениям
    Вы можете скачивать файлы