Ссылка на приватное зеркало нашего сайта всего за 1$. Внимание количество ограничено!!!

2 сезон

iTunes

1 сезон

1

2 сезон

2 сезон

iTunes

1 сезон

RePack

30

Ultimate

ВАЖНО

ИГРА 18+

pack

RePack

MK11
pack

Забери бонус

RePack

jed

!!Акция!!

Alien_Rage

RePack

fifa19

RePack

Assassins Creed: Odyssey

RePack

NEED FOR SPEED™ PAYBACK

4 сезон

9 сезон

Бесстыжие 9 сезон

Все сериалы

все сериалы на PB.wtf

RePack

FAR CRY 5
  

Коронер / Coroner / Сезон: 1 / Серии 1-8 из 8 (Эдриэнн Митчелл, Пол Фокс) [2019, драма, детектив, WEBRip 1080p] [MVO] (HDRezka) pb.wtf

Коронер через торрент pb.wtf

Размер: 15.73 GB | Добавлен: 5 мес. 2 д. назад | Торрент скачан:8 раз
Скачать  

01-03-2019 12:41 Коронер Скачать торрент  

Коронер / Coroner
Информация о сериале

Год выпуска: 2019
Жанр: драма, детектив
Страна: Канада
Продолжительность: 1 x ~ 00:44:00
Перевод: Профессиональный (многоголосый закадровый) *HDRezka*
Субтитры: Русские (forced)

Режиссер: Эдриэнн Митчелл, Пол Фокс

В ролях: Эрен Кассам, Алли Чунг, Саад Сиддикуи, Грэм Йокич, Серинда Свон, Роджер Р. Кросс, Ловелл Адамс-Грэй, Грэйс Линн Кунг, Шерилин Аллен

О фильме: Грядущая драматическая история с детективными элементами от канадских авторов обещает стать новым хитом две тысячи девятнадцатого года. Разработчики проекта Морвин Бребнер и компания Мюс Энтертеймент обещают захватывающую историю, связанную с расследованием запутанного дела, которое может так и не оказаться раскрытым. В Торонто происходят загадочные убийства. Неизвестный маньяк совершает их, ведя хитроумную игру с представителями власти. Новый коронер решается бросить вызов хитроумному преступнику. В центре внимания сюжета оказывается не только расследование, но и острое психологическое противостояние персонажей.

rating

Файл

Качество: WEBRip 1080p
Формат: MKV
Видео: MPEG-4 AVC, 1920x1080, 5 979 kb/s
Аудио: 48 kHz, AC3, 2 ch, ~192 kbps - HDRezka
скриншот  скриншот  скриншот  
General
Unique ID : 257218793494628190714727966569049100786 (0xC18289A46A9D46DCD9F42853D03011F2)
Complete name : G:\Coroner.2019.S01.1080p\Coroner.S01E01.WEBRip.1080p.rus.2.0.HDREZKA.STUDIO.mkv
Format : Matroska
Format version : Version 4
File size : 1.93 GiB
Duration : 43 min 55 s
Overall bit rate mode : Variable
Overall bit rate : 6 296 kb/s
Encoded date : UTC 2020-06-25 20:08:47
Writing application : mkvmerge v47.0.0 ('Black Flag') 64-bit
Writing library : libebml v1.3.10 + libmatroska v1.5.2

Video
ID : 1
Format : AVC
Format/Info : Advanced Video Codec
Format profile : High@L4.1
Format settings : CABAC / 1 Ref Frames
Format settings, CABAC : Yes
Format settings, Reference : 1 frame
Codec ID : V_MPEG4/ISO/AVC
Duration : 43 min 55 s
Bit rate mode : Variable
Bit rate : 5 979 kb/s
Maximum bit rate : 2 000 kb/s
Width : 1 920 pixels
Height : 1 080 pixels
Display aspect ratio : 16:9
Frame rate mode : Constant
Frame rate : 23.976 (24000/1001) FPS
Color space : YUV
Chroma subsampling : 4:2:0
Bit depth : 8 bits
Scan type : Progressive
Bits/(Pixel*Frame) : 0.120
Stream size : 1.83 GiB (95%)
Default : Yes
Forced : No
Duration_Source : General_Duration

Audio
ID : 2
Format : AC-3
Format/Info : Audio Coding 3
Commercial name : Dolby Digital
Codec ID : A_AC3
Duration : 43 min 55 s
Bit rate mode : Constant
Bit rate : 192 kb/s
Channel(s) : 2 channels
Channel layout : L R
Sampling rate : 48.0 kHz
Frame rate : 31.250 FPS (1536 SPF)
Compression mode : Lossy
Stream size : 60.3 MiB (3%)
Language : Russian
Service kind : Complete Main
Default : Yes
Forced : No
Duration_Source : General_Duration

pb.wtf



Скачать Коронер через торрент https://i110.fastpic.ru/big/2019/0301/25/44bd2055798a508cc0d2f92bc4a0f325.jpg Скачать фильм Коронер через торрент бесплантно в хорошем качестве О фильме: Грядущая драматическая история с детективными элементами от канадских авторов обещает стать новым хитом две тысячи девятнадцатого ... 10 10 2
Торрент: Зарегистрирован [2020-06-26 20:40] · скачан: 8 раз
Статус: √ проверено
Размер: 15.73 GB
Как cкачать? Как скачать Коронер через торрент | qTorrent

% Раздел Тема Автор DL S | L
Зарубежные сериалы [ 15.43 GB ] Коронер / Coroner / Сезон: 1 / Серии: 1-8 из 8 [2019 WEB-DL 1080p] MVO [NewStudio] bober100 Скачать
1 | 0
Зарубежные сериалы [ 7.48 GB ] Коронер / Coroner / Сезон: 1 / Серии 1-8 из 8 [2019 WEB-DL 720p] [MVO] killermax2013 Скачать
2 | 0
T Зарубежные сериалы [ 4.89 GB ] Коронер / Coroner / Сезон: 2 / Серии 1-8 из 8 [2020 WEB-DLRip] [MVO] killermax2013 Скачать
1 | 0

28-11-2019 20:33  

Отключить всю рекламу на сайте

    Дорогой пользователь! Огромная просьба, поблагодарите релизера, оцените раздачу и оставьте свои комментарий, если Вы скачали Коронер через торрент бесплатно! Внесите свою лепту в развитие PiratBit!
    Комментировать посты могут только пользователи прошедшие не сложную регистрацию
    Показать сообщения:    

    Коронер через торрент
    Скачать бесплатно Коронер
    Коронер скачать торрент
    Коронер смотреть онлайн
    Cкачать фильм Коронер бесплатно
    Коронер скачать торрент в хорошем качестве
    Коронер смотреть онлайн бесплатно в хорошем качестве


    Вы не можете начинать темы
    Вы не можете отвечать на сообщения
    Вы не можете редактировать свои сообщения
    Вы не можете удалять свои сообщения
    Вы не можете голосовать в опросах
    Вы не можете прикреплять файлы к сообщениям
    Вы можете скачивать файлы