Ссылка на приватное зеркало нашего сайта всего за 1$. Внимание количество ограничено!!!

2 сезон

iTunes

1 сезон

1

2 сезон

2 сезон

iTunes

1 сезон

RePack

30

Ultimate

ВАЖНО

ИГРА 18+

pack

RePack

MK11
pack

Забери бонус

RePack

jed

!!Акция!!

Alien_Rage

RePack

fifa19

RePack

Assassins Creed: Odyssey

RePack

NEED FOR SPEED™ PAYBACK

4 сезон

9 сезон

Бесстыжие 9 сезон

Все сериалы

все сериалы на PB.wtf

RePack

FAR CRY 5
  

Рома / Roma (Альфонсо Куарон / Alfonso Cuarón) [2018, драма, WEB-DL 1080p] [MVO] (HDRezka Studio) pb.wtf

Рома через торрент pb.wtf

Размер: 7.08 GB | Добавлен: 1 год 8 мес. назад | Торрент скачан:298 раз
Скачать  

01-03-2019 13:02 Рома Скачать торрент  

Рома / Roma
Год выхода: 2018
Страна: Мексика, США
Жанр: драма
Продолжительность: 02:15:16
Перевод: Профессиональный (многоголосый закадровый) HDRezka Studio
Субтитры: Русские (полные), английские (полные)
Режиссер: Альфонсо Куарон / Alfonso Cuarón
В ролях: Ялица Апарисио, Марина де Тавира, Диего Кортина Отри, Карлос Перальта, Марко Граф, Даниэла Демеса, Нэнси Гарсия Гарсия, Вероника Гарсия, Энди Кортес, Фернандо Гредиага, Хорхе Антонио Герреро, Хосе Мануэль Герреро Мендоса
О фильме: В основе сюжета ленты — история жизни обычной семьи среднего класса в Мехико в начале 1970-х годов. Отец редко бывает дома, мать воспитывает четырёх детей, опираясь на помощь двух служанок родом из местных индейцев. Судьбу героев переламывают студенческие беспорядки во время католического праздника 10 июня 1971 года, когда демонстранты были расстреляны солдатами.
ratingскриншот  

Релиз - скриншот  

Качество: WEB-DL 1080p
Формат: MKV
Видео: MPEG-4 AVC, 6810 Kбит/с, 1920x1080, 23.976 кадр/с
Аудио 1: 48 kHz, AC3 Dolby Digital, 2 ch, ~192 kbps avg - MVO
Аудио 2: 48 kHz, E-AC3 Dolby Digital, 6 ch, ~640 kbps avg - Eng
Общее
Уникальный идентификатор : 53653283364030701106327765626768458241 (0x285D3F1AEC0C15AD52AB758942A60201)
Полное имя : F:\OlLanDGroup\Roma.2018.NF.WEB-DL(1080p).OllanDGroup.mkv
Формат : Matroska
Версия формата : Version 4 / Version 2
Размер файла : 7,08 Гбайт
Продолжительность : 2 ч. 15 м.
Режим общего битрейта : Переменный
Общий поток : 7490 Кбит/сек
Название фильма : Roma.2018.NF #TorpedoUK#
Дата кодирования : UTC 2019-03-01 12:14:28 / UTC 2018-12-13 05:26:58
Программа кодирования : mkvmerge v29.0.0 ('Like It Or Not') 64-bit
Библиотека кодирования : libebml v1.3.6 + libmatroska v1.4.9 / Lavf58.0.0

Видео
Идентификатор : 1
Формат : AVC
Формат/Информация : Advanced Video Codec
Профиль формата : Main@L4
Параметр CABAC формата : Да
Параметр ReFrames формата : 3 кадра
Идентификатор кодека : V_MPEG4/ISO/AVC
Продолжительность : 2 ч. 15 м.
Вид битрейта : Переменный
Битрейт : 6810 Кбит/сек
Максимальный битрейт : 10,2 Мбит/сек
Ширина : 1920 пикселей
Высота : 1080 пикселей
Соотношение сторон : 16:9
Режим частоты кадров : Постоянный
Частота кадров : 23,976 (24000/1001) кадра/сек
Цветовое пространство : YUV
Субдискретизация насыщенности : 4:2:0
Битовая глубина : 8 бит
Тип развёртки : Прогрессивная
Бит/(Пиксели*Кадры) : 0.137
Размер потока : 6,15 Гбайт (87%)
Библиотека кодирования : x264 core 148 r2715 7e75228
Настройки программы : cabac=1 / ref=3 / deblock=1:0:0 / analyse=0x1:0x111 / me=umh / subme=10 / psy=1 / psy_rd=1.00:0.00 / mixed_ref=1 / me_range=24 / chroma_me=1 / trellis=2 / 8x8dct=0 / cqm=0 / deadzone=21,11 / fast_pskip=1 / chroma_qp_offset=-2 / threads=8 / lookahead_threads=1 / sliced_threads=0 / nr=0 / decimate=1 / interlaced=0 / bluray_compat=0 / stitchable=1 / constrained_intra=0 / bframes=2 / b_pyramid=0 / b_adapt=2 / b_bias=0 / direct=3 / weightb=1 / open_gop=0 / weightp=2 / keyint=48 / keyint_min=25 / scenecut=0 / intra_refresh=0 / rc_lookahead=48 / rc=2pass / mbtree=1 / bitrate=6810 / ratetol=1.0 / qcomp=0.50 / qpmin=6 / qpmax=51 / qpstep=4 / cplxblur=20.0 / qblur=0.5 / vbv_maxrate=10215 / vbv_bufsize=13620 / nal_hrd=vbr / filler=0 / ip_ratio=1.40 / aq=1:1.00
Default : Да
Forced : Нет
Statistics Tags Issue : mkvmerge v29.0.0 ('Like It Or Not') 64-bit 2019-03-01 12:14:28 / mkvmerge v29.0.0 ('Like It Or Not') 64-bit 2019-03-01 12:14:28 / UTC 2018-12-13 05:26:58
FromStats_BitRate : 6656229
FromStats_Duration : 02:15:16.442000000
FromStats_FrameCount : 194600
FromStats_StreamSize : 6753112477

Аудио #1
Идентификатор : 2
Формат : AC-3
Формат/Информация : Audio Coding 3
Расширение режима : CM (complete main)
Параметр Endianness формата : Big
Идентификатор кодека : A_AC3
Продолжительность : 2 ч. 15 м.
Вид битрейта : Постоянный
Битрейт : 192 Кбит/сек
Каналы : 2 канала
Расположение каналов : Front: L R
Частота : 48,0 КГц
Частота кадров : 31,250 кадров/сек (1536 spf)
Битовая глубина : 16 бит
Метод сжатия : С потерями
Размер потока : 186 Мбайт (3%)
Заголовок : MVO [HDRezka Studio]
Язык : Russian
Default : Да
Forced : Нет
Statistics Tags Issue : mkvmerge v29.0.0 ('Like It Or Not') 64-bit 2019-03-01 12:14:28 / mkvmerge v29.0.0 ('Like It Or Not') 64-bit 2019-03-01 12:14:28 / UTC 2018-12-13 05:26:58
FromStats_BitRate : 192000
FromStats_Duration : 02:15:16.992000000
FromStats_FrameCount : 253656
FromStats_StreamSize : 194807808

Аудио #2
Идентификатор : 3
Формат : E-AC-3
Формат/Информация : Enhanced Audio Coding 3
Параметр Endianness формата : Big
Идентификатор кодека : A_EAC3
Продолжительность : 2 ч. 15 м.
Вид битрейта : Постоянный
Битрейт : 640 Кбит/сек
Каналы : 6 каналов
Расположение каналов : Front: L C R, Side: L R, LFE
Частота : 48,0 КГц
Частота кадров : 187,500 кадров/сек (256 spf)
Метод сжатия : С потерями
Размер потока : 619 Мбайт (9%)
Заголовок : [Original]
Язык : English
Default : Нет
Forced : Нет
Дата кодирования : UTC 2018-12-13 05:26:58
HANDLER_NAME : Audio Media Handler
Statistics Tags Issue : mkvmerge v29.0.0 ('Like It Or Not') 64-bit 2019-03-01 12:14:28 / mkvmerge v29.0.0 ('Like It Or Not') 64-bit 2019-03-01 12:14:28 / UTC 2018-12-13 05:26:58
FromStats_BitRate : 640000
FromStats_Duration : 02:15:16.640000000
FromStats_FrameCount : 253645
FromStats_StreamSize : 649331200

Текст #1
Идентификатор : 4
Формат : UTF-8
Идентификатор кодека : S_TEXT/UTF8
Идентификатор кодека/Информация : UTF-8 Plain Text
Заголовок : Russian
Язык : Russian
Default : Нет
Forced : Нет
Statistics Tags Issue : mkvmerge v29.0.0 ('Like It Or Not') 64-bit 2019-03-01 12:14:28 / mkvmerge v29.0.0 ('Like It Or Not') 64-bit 2019-03-01 12:14:28 / UTC 2018-12-13 05:26:58
FromStats_BitRate : 51
FromStats_Duration : 02:14:10.877000000
FromStats_FrameCount : 937
FromStats_StreamSize : 51371

Текст #2
Идентификатор : 5
Формат : UTF-8
Идентификатор кодека : S_TEXT/UTF8
Идентификатор кодека/Информация : UTF-8 Plain Text
Заголовок : English
Язык : English
Default : Нет
Forced : Нет
Statistics Tags Issue : mkvmerge v29.0.0 ('Like It Or Not') 64-bit 2019-03-01 12:14:28 / mkvmerge v29.0.0 ('Like It Or Not') 64-bit 2019-03-01 12:14:28 / UTC 2018-12-13 05:26:58
FromStats_BitRate : 30
FromStats_Duration : 02:08:11.768000000
FromStats_FrameCount : 886
FromStats_StreamSize : 29747

скриншот  скриншот  скриншот  
pb.wtf



Скачать Рома через торрент https://i109.fastpic.ru/big/2019/0301/21/7da06f7fb528b1c35106ecd0cfccad21.jpg Скачать фильм Рома через торрент бесплантно в хорошем качестве О фильме: В основе сюжета ленты — история жизни обычной семьи среднего класса в Мехико в начале 1970-х годов. Отец редко бывает дома, мать ... 8.8 10 4
Info! Золотая раздача, скачанное не засчитывается.
Торрент: Зарегистрирован [2019-03-01 13:02] · скачан: 298 раз
Статус: T временная
Размер: 7.08 GB
Как cкачать? Как скачать Рома через торрент | qTorrent

% Раздел Тема Автор DL S | L
Фильмы 2017 [DVDrip, WEB-DLRip, HDrip] (DUB, MVO) [ 1.46 GB ] Роман Израэл Esq. / Roman J. Israel Esq. [2017 BDRip] MVO [] Twi7ter Скачать
1 | 0
Кино СССР [ 2.05 GB ] Служебный роман / Sluzhebnyy roman [1977 DVDRip] Shmel Скачать
2 | 0
Фильмы до 2000 г. [ 1.46 GB ] Пироманьяк: История любви / A Pyromaniac's Love Story [1995 WEBRip] [DVO] killermax2013 Скачать
1 | 0
Фильмы (Blu-ray, BD-Remux, HDDVD) [ 60.43 GB ] Роман с камнем + Жемчужина Нила / Romancing the Stone + The Jewel of the Nile кэп Скачать
1 | 0
Фильмы 2017 [DVDrip, WEB-DLRip, HDrip] (DUB, MVO) [ 2.18 GB ] Роман Израэл Esq. / Roman J. Israel Esq. [2017 BDRip] MVO [] Twi7ter Скачать
1 | 0
Приключения, Квесты, Логические [ 1.59 GB ] Dark Romance 4: Kingdom of Death / Роман тьмы 4: Царство смерти [Пиратка RUS / ENG] Fadelia Скачать
1 | 0
Порно фильмы с сюжетом [ 1.81 GB ] Служебный Роман / Work Romance [2016 Feature Foreign Straight Oral Compilation Office Fantasies DVDRip] sheker187 Скачать
1 | 0

28-11-2019 20:33  

Отключить всю рекламу на сайте

    Дорогой пользователь! Огромная просьба, поблагодарите релизера, оцените раздачу и оставьте свои комментарий, если Вы скачали Рома через торрент бесплатно! Внесите свою лепту в развитие PiratBit!
    Комментировать посты могут только пользователи прошедшие не сложную регистрацию
    Показать сообщения:    

    Рома через торрент
    Скачать бесплатно Рома
    Рома скачать торрент
    Рома смотреть онлайн
    Cкачать фильм Рома бесплатно
    Рома скачать торрент в хорошем качестве
    Рома смотреть онлайн бесплатно в хорошем качестве


    Вы не можете начинать темы
    Вы не можете отвечать на сообщения
    Вы не можете редактировать свои сообщения
    Вы не можете удалять свои сообщения
    Вы не можете голосовать в опросах
    Вы не можете прикреплять файлы к сообщениям
    Вы можете скачивать файлы