Ссылка на приватное зеркало нашего сайта всего за 1$. Внимание количество ограничено!!!

2 сезон

iTunes

1 сезон

1

2 сезон

2 сезон

iTunes

1 сезон

RePack

30

Ultimate

ВАЖНО

ИГРА 18+

pack

RePack

MK11
pack

Забери бонус

RePack

jed

!!Акция!!

Alien_Rage

RePack

fifa19

RePack

Assassins Creed: Odyssey

RePack

NEED FOR SPEED™ PAYBACK

4 сезон

9 сезон

Бесстыжие 9 сезон

Все сериалы

все сериалы на PB.wtf

RePack

FAR CRY 5
  

Жизни матрёшки / Russian Doll / Сезон: 1 / Серии: 1-8 из 8 (Лесли Хэдланд, Джеми Бэббит , Наташа Лионн) [2019, комедия, драма, фантастика, детектив, WEB-DL 1080p] [MVO] (TVShows) pb.wtf

Жизни матрёшки через торрент pb.wtf

Размер: 7.63 GB | Добавлен: 1 год 9 мес. назад | Торрент скачан:87 раз
Скачать  

01-03-2019 14:10 Жизни матрёшки Скачать торрент  

Жизни матрёшки | Russian Doll
Год выпуска: 2019
Страна: США
Жанр: комедия, драма, фантастика, детектив
Продолжительность: ~ 00:25:00

Перевод: Профессиональный (многоголосый закадровый) TVShows

Режиссёр: Лесли Хэдланд, Джеми Бэббит, Наташа Лионн

В ролях: Наташа Лионн, Грета Ли, Ребекка Хендерсон, Элизабет Эшли, Джереми Бобб, Чарли Барнетт, Ритеш Раджан, Юл Васкес, Даша Поланко и др.
Описание: Девушка по имени Надя попадает в таинственную временную петлю, которая заставляет её посещать одну и ту же вечеринку в Нью-Йорке и в конце неё умирать, просыпаясь наутро невредимой.
ratingскриншот  

Качество: WEB-DL 1080p
Формат: MKV
Видео: MPEG-4 AVC, 1920х1080, 23.976 fps, ~53680 kbps avg, ~0.33 bit/pixel
Аудио Rus: AC3, 48.0 KHz, 6 channels, 384 kbps
Аудио Rus: E-AC3, 48.0 KHz, 6 channels, 640 kbps
Субтитры: английские
Общее
Уникальный идентификатор : 150870295279621955213315910866284308063 (0x71808FDB48ADD940F8C13AFE3FA3E65F)
Полное имя : I:\Тифайл\Обновления - Тифайл\Russian.Doll.S01.1080p.TVShows\Russian.Doll.S01E01.1080p.TVShows.mkv
Формат : Matroska
Версия формата : Version 4 / Version 2
Размер файла : 960 Мбайт
Продолжительность : 25 м. 0 с.
Режим общего битрейта : Переменный
Общий поток : 5368 Кбит/сек
Дата кодирования : UTC 2019-02-22 12:28:32
Программа кодирования : mkvmerge v31.0.0 ('Dolores In A Shoestand') 64-bit
Библиотека кодирования : libebml v1.3.6 + libmatroska v1.4.9

Видео
Идентификатор : 1
Формат : AVC
Формат/Информация : Advanced Video Codec
Профиль формата : Main@L4
Параметр CABAC формата : Да
Параметр ReFrames формата : 3 кадра
Идентификатор кодека : V_MPEG4/ISO/AVC
Продолжительность : 24 м. 59 с.
Вид битрейта : Переменный
Битрейт : 4420 Кбит/сек
Максимальный битрейт : 6630 Кбит/сек
Ширина : 1920 пикселей
Высота : 1080 пикселей
Соотношение сторон : 16:9
Режим частоты кадров : Постоянный
Частота кадров : 23,976 (24000/1001) кадра/сек
Цветовое пространство : YUV
Субдискретизация насыщенности : 4:2:0
Битовая глубина : 8 бит
Тип развёртки : Прогрессивная
Бит/(Пиксели*Кадры) : 0.089
Размер потока : 777 Мбайт (81%)
Библиотека кодирования : x264 core 148 r2715 7e75228
Настройки программы : cabac=1 / ref=3 / deblock=1:0:0 / analyse=0x1:0x111 / me=umh / subme=10 / psy=1 / psy_rd=1.00:0.00 / mixed_ref=1 / me_range=24 / chroma_me=1 / trellis=2 / 8x8dct=0 / cqm=0 / deadzone=21,11 / fast_pskip=1 / chroma_qp_offset=-2 / threads=8 / lookahead_threads=1 / sliced_threads=0 / nr=0 / decimate=1 / interlaced=0 / bluray_compat=0 / stitchable=1 / constrained_intra=0 / bframes=2 / b_pyramid=0 / b_adapt=2 / b_bias=0 / direct=3 / weightb=1 / open_gop=0 / weightp=2 / keyint=48 / keyint_min=25 / scenecut=0 / intra_refresh=0 / rc_lookahead=48 / rc=2pass / mbtree=1 / bitrate=4420 / ratetol=1.0 / qcomp=0.50 / qpmin=6 / qpmax=51 / qpstep=4 / cplxblur=20.0 / qblur=0.5 / vbv_maxrate=6630 / vbv_bufsize=8840 / nal_hrd=vbr / filler=0 / ip_ratio=1.40 / aq=1:1.00
Default : Да
Forced : Нет

Аудио #1
Идентификатор : 2
Формат : AC-3
Формат/Информация : Audio Coding 3
Параметр Endianness формата : Big
Идентификатор кодека : A_AC3
Продолжительность : 25 м. 0 с.
Вид битрейта : Постоянный
Битрейт : 384 Кбит/сек
Каналы : 6 каналов
Расположение каналов : Front: L C R, Side: L R, LFE
Частота : 48,0 КГц
Частота кадров : 31,250 кадров/сек (1536 spf)
Битовая глубина : 16 бит
Метод сжатия : С потерями
Размер потока : 68,7 Мбайт (7%)
Заголовок : TVShows
Язык : Russian
ServiceKind/String : Complete Main
Default : Да
Forced : Да

Аудио #2
Идентификатор : 3
Формат : E-AC-3
Формат/Информация : Enhanced Audio Coding 3
Параметр Endianness формата : Big
Идентификатор кодека : A_EAC3
Продолжительность : 25 м. 0 с.
Вид битрейта : Постоянный
Битрейт : 640 Кбит/сек
Каналы : 6 каналов
Расположение каналов : Front: L C R, Side: L R, LFE
Частота : 48,0 КГц
Частота кадров : 187,500 кадров/сек (256 spf)
Метод сжатия : С потерями
Размер потока : 114 Мбайт (12%)
Заголовок : Original
Язык : English
ServiceKind/String : Complete Main
Default : Нет
Forced : Нет

Текст
Идентификатор : 4
Формат : UTF-8
Идентификатор кодека : S_TEXT/UTF8
Идентификатор кодека/Информация : UTF-8 Plain Text
Продолжительность : 24 м. 10 с.
Битрейт : 93 бит/сек
ElementCount : 480
Размер потока : 16,5 Кбайт (0%)
Заголовок : English
Язык : English
Default : Нет
Forced : Нет
скриншот  скриншот  скриншот  
pb.wtf



Скачать Жизни матрёшки через торрент https://i106.fastpic.ru/big/2019/0201/ea/5aa54c9c15b8377c3f428c55d57d2cea.jpg Скачать фильм Жизни матрёшки через торрент бесплантно в хорошем качестве Описание: Девушка по имени Надя попадает в таинственную временную петлю, которая заставляет её посещать одну и ту же вечеринку в Нью-Йорке ... 10 10 2
Торрент: Зарегистрирован [2019-03-01 14:10] · скачан: 87 раз
Статус: √ проверено
Размер: 7.63 GB
Как cкачать? Как скачать Жизни матрёшки через торрент | qTorrent

% Раздел Тема Автор DL S | L
Зарубежные сериалы [ 21.03 GB ] Жизни матрёшки / Матрёшка / Russian Doll / Сезон: 1 / Серии: 1-8 из 8 [2019 WEBRip 1080p] DVO [Кубик в кубе] bober100 Скачать
1 | 0
Зарубежные сериалы [ 4.8 GB ] Жизни матрёшки / Матрёшка / Russian Doll / Сезон 1 / Серии 1-8 из 8 [2019 WEB-DL 720p] [DVO] killermax2013 Скачать
3 | 0
Зарубежные сериалы [ 46.7 GB ] Жизни матрёшки / Матрёшка / Russian Doll / Сезон 1 / Серии 1-8 из 8 [2019 UHD WEBRip 2160p] [SDR] Пифагор sheker187 Скачать
1 | 0
Зарубежные сериалы [ 4.81 GB ] Жизни матрёшки / Матрёшка / Russian Doll / Сезон 1 / Серии 1-8 из 8 [2019 WEB-DL 720p] killermax2013 Скачать
1 | 0
Зарубежные сериалы [ 3.83 GB ] Матрёшка / Жизни матрёшки / Russian Doll / Сезон: 1 / Серии: 1-8 из 8 [2019 WEB-DLRip] DUB [Пифагор & BTI Studios] bober100 Скачать
1 | 0
Зарубежные сериалы [ 8.02 GB ] Жизни матрёшки / Матрёшка / Russian Doll / Сезон 1 / Серии 1-8 из 8 [2019 WEB-DL 1080p] killermax2013 Скачать
2 | 0

28-11-2019 20:33  

Отключить всю рекламу на сайте

10-03-2019 18:32 Жизни матрёшки Скачать торрент  

где норм перевод с хлестким словечком и пометкой
   ?!
Кубик-в-Кубе прийди!! pb.wtf



    Дорогой пользователь! Огромная просьба, поблагодарите релизера, оцените раздачу и оставьте свои комментарий, если Вы скачали Жизни матрёшки через торрент бесплатно! Внесите свою лепту в развитие PiratBit!
    Комментировать посты могут только пользователи прошедшие не сложную регистрацию
    Показать сообщения:    

    Жизни матрёшки через торрент
    Скачать бесплатно Жизни матрёшки
    Жизни матрёшки скачать торрент
    Жизни матрёшки смотреть онлайн
    Cкачать фильм Жизни матрёшки бесплатно
    Жизни матрёшки скачать торрент в хорошем качестве
    Жизни матрёшки смотреть онлайн бесплатно в хорошем качестве


    Вы не можете начинать темы
    Вы не можете отвечать на сообщения
    Вы не можете редактировать свои сообщения
    Вы не можете удалять свои сообщения
    Вы не можете голосовать в опросах
    Вы не можете прикреплять файлы к сообщениям
    Вы можете скачивать файлы