Всегда рабочее зеркало без VPN и Proxy просто перед .vidak.icu напиши любое слово или цифру, Пример http://oesm.vidak.icu

Лицензия

MVO

1 сезон

1

1 сезон

iTunes

1 сезон

13

1 сезон

Deluxe

pack

Рекомендуем

Repack

30

ВАЖНО

RePack

MK11

RePack

jed

RePack

fifa19

RePack

RDR2

RePack

NEED FOR SPEED™ PAYBACK

Кинопоиск HD

6 сезон

 Острые козырьки 6 сезон

Все сериалы

все сериалы на PB.wtf

RePack

FAR CRY 5
  
Magnet ссылка

Перевал / Der Pass / Pagan Peak / Сезон: 1 / Серии: 1-8 из 8 (Сирил Босс, Филипп Штеннерт) [2018, Триллер, драма, криминал, детектив, WEBRip] [DVO] (Кубик в кубе) pb.wtf

Перевал через торрент pb.wtf

Размер: 4.83 GB | Добавлен: 3 года 5 мес. назад | Торрент скачан:414 раз
Смотреть онлайн Перевал | Скачать    Ребята, помогите собрать деньги на оплату серверов!!!

01-03-2019 14:14 Перевал Скачать торрент  

Перевал / Der Pass / Pagan Peak
Год выпуска: 2018
Страна: Германия, Австрия
Жанр: Триллер, драма, криминал, детектив
Продолжительность: ~00:43:00
Перевод: Профессиональный (двухголосый закадровый) | Кубик в кубе
Режиссёр: Сирил Босс, Филипп Штеннерт
В ролях: Юлиа Енч, Николас Офчарек, Франц Хартвиг, Ханно Коффлер, Лукас Мико, Наташа Петрович, Лукас Грегорович, Мартин Файфель, Кристофер Шерф, Джулиан Лооман
Описание: В заснеженных Альпах, на самой границе между Германией и Австрией, полиция находит труп мужчины. При осмотре выясняется: мужчину приволокли сюда уже мертвым, у него поддельные документы, а в руках — хвост из конского волоса. Расследовать загадочное преступление берутся два детектива из соседствующих стран.

Она — жизнелюбивая немка Элли Стокер, которая пытается делать свою жуткую работу легко. Он — мрачный алкоголик Гедеон Винтер, оказавшийся на самом дне жизни. Вдвоем они включаются в расследование, которое все больше напоминает опасную игру, затеянную маньяком-убийцей, — и заодно демонстрируют, как важно при всей разности темпераментов и образов жизни держаться вместе.
скриншот  

Качество: WEBRip
Формат: AVI
Видео: XviD, 720x304, 29.970 fps, ~1500 kbps
Аудио: 44.1 kHz, MPEG Layer 3, 2 ch, ~128.00 kbps
Субтитры: нет



Format : AVI
Format/Info : Audio Video Interleave
File size : 521 MiB
Duration : 43 min 0 s
Overall bit rate : 1 693 kb/s
Writing application : VirtualDubMod 1.5.10.2 (build 2540/release)
Writing library : VirtualDubMod build 2540/release

Video
ID : 0
Format : MPEG-4 Visual
Format profile : Advanced [email protected]
Format settings : BVOP1 / Custom Matrix
Format settings, BVOP : 1
Format settings, QPel : No
Format settings, GMC : No warppoints
Format settings, Matrix : Custom
Codec ID : XVID
Codec ID/Hint : XviD
Duration : 43 min 0 s
Bit rate : 1 553 kb/s
Width : 720 pixels
Height : 304 pixels
Display aspect ratio : 2.35:1
Frame rate : 29.970 (30000/1001) FPS
Color space : YUV
Chroma subsampling : 4:2:0
Bit depth : 8 bits
Scan type : Progressive
Compression mode : Lossy
Bits/(Pixel*Frame) : 0.237
Stream size : 478 MiB (92%)
Writing library : XviD 73

Audio
ID : 1
Format : MPEG Audio
Format version : Version 1
Format profile : Layer 3
Format settings : Joint stereo / MS Stereo
Codec ID : 55
Codec ID/Hint : MP3
Duration : 43 min 0 s
Bit rate mode : Constant
Bit rate : 128 kb/s
Channel(s) : 2 channels
Sampling rate : 44.1 kHz
Compression mode : Lossy
Stream size : 39.3 MiB (8%)
Alignment : Split accross interleaves
Interleave, duration : 33 ms (1.00 video frame)
Interleave, preload duratio : 501 ms
скриншот  скриншот  скриншот  
Внимание! Раздача ведётся путём добавления новых серий; при каждом добавлении создаётся новый торрент. Чтобы начать докачку новой серии, пользователям необходимо сделать следующее:
(1) остановить скачивание,
(2) удалить старый торрент у себя из клиента (старые серии удалять не надо),
(3) скачать новый торрент и запустить его у себя в клиенте вместо старого, при этом указать клиенту путь в старую папку куда и должно происходить скачивание новых серий.

Ваш клиент при этом должен произвести хеширование (проверку) старой папки (если не производит сам - помогите ему сделать это), и будет докачивать только те серии которых у вас ещё нет. Старые серии при этом не удаляются, а продолжают раздаваться!

Eсли вы уже удалили старые серии, то предотвратить повторную закачку старых серий можно, отжав галочку в соответствующих местах при запуске нового торрента. По возможности, желательно не удалять старые серии как можно дольше чтобы релизёр не столько продолжал раздавать старые серии, а смог сконцентрироваться на новых.
pb.wtf



Скачать Перевал через торрент https://i110.fastpic.ru/big/2019/0301/60/f2631e0040200d95ec85a9541fb10160.jpg Скачать, смотреть онлайн Перевал бесплантно в хорошем качестве Описание: В заснеженных Альпах, на самой границе между Германией и Австрией, полиция находит труп мужчины. При осмотре выясняется: мужчину ... 10 10 8
Торрент: Зарегистрирован [2019-03-02 13:58] · скачан: 414 раз
Статус: √ проверено
Размер: 4.83 GB
Как cкачать? Как скачать Перевал через торрент | UTorrent

% Раздел Тема Автор DL S | L
Зарубежные сериалы [ 5.67 GB ] Перевал / Der Pass / Pagan Peak / Сезон: 2 / Серии: 1-8 из 8 [2022 WEBRip 720p] [MVO] killermax2013 Скачать
1 | 0
Зарубежные сериалы [ 21.29 GB ] Перевал / Der Pass / Pagan Peak / Сезон: 2 / Серии: 1-8 из 8 [2022 WEB-DL 1080p] [MVO] + [DVO] killermax2013 Скачать
1 | 0
Зарубежные сериалы [ 12.27 GB ] Перевал / Der Pass / Pagan Peak / Сезон: 1 / Серии: 1-8 из 8 [2018 BDRip 1080p] [MVO] + [DVO] killermax2013 Скачать
5 | 0
Зарубежные сериалы [ 13.05 GB ] Перевал / Der Pass / Pagan Peak / Сезон: 1 / Серии: 1-8 из 8 [2018 WEBRip 1080p] DVO [Кубик в Кубе] bober100 Скачать
1 | 0


Последний раз редактировалось: killermax2013 (2022-01-22 12:13), всего редактировалось 3 раз(а)

28-11-2019 20:33  

Отключить вcю реклaмy на сайте

01-03-2019 15:21 Перевал Скачать торрент  

Он — мрачный алкоголик...Она — весёлая алкоголичка... pb.wtf



15-03-2019 18:25 Перевал Скачать торрент  

Картинка дерганая как где1080р?pb.wtf



15-03-2019 19:55 Перевал Скачать торрент  

JKELL писал(а):

Картинка дерганая как где1080р?

как где? сэмпл посмотреть можноpb.wtf



    Дорогой пользователь! Огромная просьба, поблагодарите релизера, оцените раздачу и оставьте свои комментарий, если Вы скачали Перевал через торрент бесплатно!
    Комментировать посты могут только пользователи прошедшие не сложную регистрацию
    Показать сообщения:    

    Перевал через торрент
    Скачать бесплатно Перевал
    Перевал скачать торрент
    Перевал смотреть онлайн
    Cкачать фильм Перевал бесплатно
    Перевал скачать торрент в хорошем качестве
    Перевал смотреть онлайн бесплатно в хорошем качестве


    Вы не можете начинать темы
    Вы не можете отвечать на сообщения
    Вы не можете редактировать свои сообщения
    Вы не можете удалять свои сообщения
    Вы не можете голосовать в опросах
    Вы не можете прикреплять файлы к сообщениям
    Вы можете скачивать файлы