MEGA SALE -50% FORZA HORIZON 4 ULTIMATE+ВСЕ DLC+ОНЛАЙН всего за 599р. 299 руб. (супер цена). Внимание количество ограничено!!!

iTunes

1+1

iTunes

мы

iTunes

1

iTunes

Чернобыль

1 сезон

Ральф против интернета

Лицензия

ПШазам

Лицензия

Игра престолов

Лицензия

30
pack

ВАЖНО

!!Акция!!

Alien_RageХит недели

RePack

Resident Evil 21

ИГРА 18+

pack

RePack

Metro:Exodus

!!Акция!!

Alien_Rage

RePack

fifa19

RePack

Assassins Creed: Odyssey

RePack

NEED FOR SPEED™ PAYBACK

3 сезон

9 сезон

Бесстыжие 9 сезон

Все сериалы

все сериалы на PB.wtf

RePack

FAR CRY 5
Ребята, катастрофически не хватает 7730р. для оплаты серверов за ИЮЛЬ (всвязи с блокировками трафик упал в 3 раза), 1-2р., выручайте.
  

Гранд / Сезон: 2 / Серии: 1-22 из 22 + фильм о фильме (Дмитрий Грибанов) [2019, Комедия, WEB-DL 720p] pb.wtf

Гранд через торрент pb.wtf

Раздают: 1 [ 3 KB/s ] Качают: 1 [ 0 KB/s ]
Размер: 12.13 GB | Добавлен: 3 мес. 29 д. назад | Торрент скачан:59 раз
Скачать  

01-03-2019 20:51 Гранд Скачать торрент  

ГрандГод выпуска: 2019
Страна: Россия
Жанр: Комедия
Продолжительность: ~ 00:28:00
Субтитры: отсутствуют

Режиссер: Дмитрий Грибанов



В ролях:

Александр Лыков, Мила Сивацкая, Константин Белошапка, Ольга Филимонова, Григорий Сиятвинда, Екатерина Вилкова, Елена Ксенофонтова, Милош Бикович, Сергей Лавыгин, Михаил Тарабукин, Ольга Кузьмина, Виктор Хориняк, Диана Пожарская

Описание:

Амбициозная и склонная к авантюрам студентка пятого курса Алтайского университета туризма и отдыха Ксения Завгородняя мечтает работать в гостиничном бизнесе и открыть собственный отель. Но навязчивое внимание ректора ставит под угрозу не только планы Ксюши, но и ее дальнейшее обучение в ВУЗе. Девушка находит смелый, но очень скандальный выход из ситуации, после которого ей приходится спасаться бегством из Барнаула. Ксюша отправляется в Москву в надежде устроиться портье в отель, где работает ее родственник.

Качество: WEB-DL 720p
Формат: MKV

Видео: MPEG-4 AVC, ~ 3200 Кбит/с, 1280x720
Аудио: AC3, 2 ch, 192 Кбит/с
скриншот  скриншот  скриншот  скриншот  

Общее
Уникальный идентификатор : 230290189386646541487269308882306230195 (0xAD4046F4358709EE9EF4BD0AA61467B3)
Полное имя : E:\Гранд. (2019) WEB-DL 720p. Files-x\Grand.s02.e01.2019.WEB-DL 720p. Files-x .mkv
Формат : Matroska
Версия формата : Version 2
Размер файла : 542 Мбайт
Продолжительность : 23 м. 49 с.
Общий поток : 3182 Кбит/сек
Дата кодирования : UTC 2019-03-01 12:04:43
Программа кодирования : mkvmerge v7.8.0 ('River Man') 32bit built on Apr 3 2015 12:11:22
Библиотека кодирования : libebml v1.3.1 + libmatroska v1.4.2

Видео
Идентификатор : 1
Формат : AVC
Формат/Информация : Advanced Video Codec
Профиль формата : High@L3.1
Настройки формата : CABAC / 4 Ref Frames
Параметр CABAC формата : Да
Параметр RefFrames формата : 4 кадра
Идентификатор кодека : V_MPEG4/ISO/AVC
Продолжительность : 23 м. 49 с.
Битрейт : 2927 Кбит/сек
Ширина : 1280 пикселей
Высота : 720 пикселей
Соотношение сторон : 16:9
Режим частоты кадров : Постоянный
Частота кадров : 23,976 (24000/1001) кадра/сек
Цветовое пространство : YUV
Субдискретизация насыщенности : 4:2:0
Битовая глубина : 8 бит
Тип развёртки : Прогрессивная
Бит/(Пиксели*Кадры) : 0.132
Размер потока : 499 Мбайт (92%)
Default : Да
Forced : Нет

Аудио
Идентификатор : 2
Формат : AC-3
Формат/Информация : Audio Coding 3
Идентификатор кодека : A_AC3
Продолжительность : 23 м. 49 с.
Вид битрейта : Постоянный
Битрейт : 192 Кбит/сек
Каналы : 2 канала
Расположение каналов : Front: L R
Частота : 48,0 КГц
Частота кадров : 31,250 кадров/сек (1536 SPF)
Битовая глубина : 16 бит
Метод сжатия : С потерями
Размер потока : 32,7 Мбайт (6%)
ServiceKind/String : Complete Main
Default : Да
Forced : Нет

Когда раздача ведётся путём добавления новых серий, при каждом добавлении создётся новый торрент. Чтобы начать докачку новой серии, пользователям необходимо сделать следующее:
(1) остановить скачивание,
(2) удалить старый торрент у себя из клиента (старые серии удалять не надо),
(3) скачать новый торрент и запустить его у себя в клиенте вместо старого, при этом указать клиенту путь в старую папку, куда и должно происходить скачивание новых серий.
Ваш клиент при этом должен произвести хеширование (проверку) старой папки (если не производит сам - помогите ему сделать это), и будет докачивать только те серии, которых у вас ещё нет. Старые серии при этом не удаляются, а продолжают раздаваться!
Eсли вы уже удалили старые серии, то предотвратить повторную закачку старых серий можно, отжав галочку в соответсвующих местах при запуске нового торрента. По возможности, желательно не удалять старые серии как можно дольше, чтобы релизёр не столько продолжал раздавать старые серии, а смог сконцентрироваться на новых.
pb.wtf



Скачать Гранд через торрент http://i100.fastpic.ru/big/2018/0809/ba/b57b751e8afaf3fa1d81a4e7d02367ba.jpg Скачать фильм Гранд через торрент бесплантно в хорошем качестве Описание: Амбициозная и склонная к авантюрам студентка пятого курса Алтайского университета туризма и отдыха Ксения Завгородняя мечтает ... 8.7 10 7
Торрент: Зарегистрирован [2019-04-22 15:56] · скачан: 59 раз
Статус: √ проверено
Размер: 12.13 GB
Как cкачать? Как скачать Гранд через торрент | qTorrent

% Раздел Тема Автор DL S | L
Наши сериалы [ 7.87 GB ] Гранд / Сезон: 2 / Серии: 1-22 из 22 + фильм о фильме [2019 WEB-DLRip] bober100 Скачать
4 | 1
Наши сериалы [ 25.5 GB ] Гранд / Сезон: 2 / Серии: 1-22 из 22 + фильм о фильме [2019 WEB-DL 1080p] bober100 Скачать
2 | 2
Наши сериалы [ 6.99 GB ] Гранд / Сезон: 2 / Серии: 1-22 из 22 + фильм о фильме [2019 WEBRip-AVC] bober100 Скачать
2 | 1


>> Регистрируемся здесь <<






Отзывы и комментарии о схеме читаем и пишем здесь: ---> Отзывы и комментарии о схеме

Новые благодарочки в телеграм довольных пользователей:
скриншот   скриншот   скриншот   скриншот   скриншот
    Дорогой пользователь! Огромная просьба, поблагодарите релизера, оцените раздачу и оставьте свои комментарий, если Вы скачали Гранд через торрент бесплатно! Внесите свою лепту в развитие PiratBit!
    Комментировать посты могут только пользователи прошедшие не сложную регистрацию
    Показать сообщения:    

    Гранд через торрент
    Скачать бесплатно Гранд
    Гранд скачать торрент
    Гранд смотреть онлайн
    Cкачать фильм Гранд бесплатно
    Гранд скачать торрент в хорошем качестве
    Гранд смотреть онлайн бесплатно в хорошем качестве


    Вы не можете начинать темы
    Вы не можете отвечать на сообщения
    Вы не можете редактировать свои сообщения
    Вы не можете удалять свои сообщения
    Вы не можете голосовать в опросах
    Вы не можете прикреплять файлы к сообщениям
    Вы можете скачивать файлы