новый адрес пиратбит piratbit
Мега распродажа FORZA HORIZON 4 ULTIMATE+ВСЕ DLC+ОНЛАЙН всего за 499р. 349 руб. (супер цена). Внимание количество ограничено!!!

iTunes

1+1

iTunes

мы

iTunes

1

iTunes

Чернобыль

iTunes

Ральф против интернета

Лицензия

ПШазам

Лицензия

Игра престолов

Лицензия

30
pack

ВАЖНО

!!Акция!!

Alien_RageХит недели

RePack

Resident Evil 21

ИГРА 18+

pack

RePack

Metro:Exodus

!!Акция!!

Alien_Rage

RePack

fifa19

RePack

Assassins Creed: Odyssey

RePack

NEED FOR SPEED™ PAYBACK

3 сезон

9 сезон

Бесстыжие 9 сезон

Все сериалы

все сериалы на PB.wtf

RePack

FAR CRY 5
Ребята, катастрофически не хватает 1900р. для оплаты серверов за Октябрь (всвязи с блокировками трафик упал в 3 раза), 1-2р., выручайте.
  

Ты не сирота (Шухрат Аббасов) [1962, СССР, драма, DVDRip от AVP Studio] pb.wtf

Ты не сирота через торрент pb.wtf

Размер: 743 MB | Добавлен: 8 мес. назад | Торрент скачан:4 раза
Скачать  

02-03-2019 07:41 Ты не сирота Скачать торрент  

Ты не сирота
Страна: СССР
Производство: Узбекфильм

Жанр: драма
Год выпуска: 1962
Продолжительность: 01:15:24

Перевод: Не требуется
Cубтитры: нет
Оригинальная аудиодорожка: русский

Режиссер: Шухрат Аббасов

В ролях:
Лютфи Сарымсакова, Обид Джалилов, Гена Ткаченко, Фима Каминер, Лариса Луппиан, Людмила Поречина, Роберт Атабеков, Абиль Азизов, Женя Артишевский, Валерий Рожаев, Лиля Пенькова, Наташа Митрохина, Наташа Никонова, Нина Иванова (IV), Малика Ахмедова, Петя Колесников, Павел Шахов...
Об актёрах подробней

Описание:
Киноповесть о кузнеце Шоахмеде Шомахмудове и его жене, усыновивших и воспитавших в годы Великой Отечественной войны четырнадцать осиротевших детей разных национальностей...
В годы второй мировой войны, когда в Узбекистан стали прибывать эшелоны с эвакуированными детьми из детских домов, известный узбекский поэт Гафур Гулям написал ставшее знаменитым стихотворение "Ты не сирота".

Источник: DVD5 R5
Качество видео: DVDRip
Формат видео: AVI

Видео: 688х512 (4:3), 25 fps, XviD ~ 1176 kbps avg, 0.134 bit/pixel
Аудио: 48 kHz, Dolby Digital AC3 2.0, 192 kbps

Раздача от:
Общее
Полное имя : Ty.ne.sirota.1962.DVDRip_[New-team]_by_AVP_Studio.avi
Формат : AVI
Формат/Информация : Audio Video Interleave
Размер файла : 743 Мбайт
Продолжительность : 1 ч. 15 м.
Общий поток : 1378 Кбит/сек
Программа кодирования : VirtualDubMod 1.5.10.3 | www.virtualdub-fr.org || (build 2550/release)
Библиотека кодирования : VirtualDubMod build 2550/release

Видео
Идентификатор : 0
Формат : MPEG-4 Visual
Профиль формата : Advanced Simple@L5
Настройки формата : BVOP1 / Custom Matrix
Параметр BVOP формата : 1
Параметр QPel формата : Нет
Параметр GMC формата : Без точки перехода
Параметр матрицы формата : Выборочная
Идентификатор кодека : XVID
Идентификатор кодека/Подсказка : XviD
Продолжительность : 1 ч. 15 м.
Битрейт : 1176 Кбит/сек
Ширина : 688 пикселей
Высота : 512 пикселей
Соотношение сторон : 4:3
Частота кадров : 25,000 кадров/сек
Цветовое пространство : YUV
Субдискретизация насыщенности : 4:2:0
Битовая глубина : 8 бит
Тип развёртки : Прогрессивная
Метод сжатия : С потерями
Бит/(Пиксели*Кадры) : 0.134
Размер потока : 634 Мбайт (85%)
Библиотека кодирования : XviD 73

Аудио
Идентификатор : 1
Формат : AC-3
Формат/Информация : Audio Coding 3
Коммерческое название : Dolby Digital
Идентификатор кодека : 2000
Продолжительность : 1 ч. 15 м.
Вид битрейта : Постоянный
Битрейт : 192 Кбит/сек
Каналы : 2 канала
Channel layout : L R
Частота : 48,0 КГц
Частота кадров : 31,250 кадров/сек (1536 SPF)
Битовая глубина : 16 бит
Метод сжатия : С потерями
Размер потока : 104 Мбайт (14%)
Выравнивание : Разделение по промежуткам
Продолжительность промежутка : 40 мс. (1,00 видеокадр)
Время предзагрузки промежутка : 500 мс
pb.wtf



Скачать Ты не сирота через торрент http://picplus.ru/img/1903/02/51cc6ba1.png Скачать фильм Ты не сирота через торрент бесплантно в хорошем качестве Описание:Киноповесть о кузнеце Шоахмеде Шомахмудове и его жене, усыновивших и воспитавших в годы Великой Отечественной войны четырнадцать ... 10 10 1
Info! Золотая раздача, скачанное не засчитывается.
Торрент: Зарегистрирован [2019-03-02 07:41] · скачан: 4 раз
Статус: √ проверено
Размер: 743 MB
Как cкачать? Как скачать Ты не сирота через торрент | qTorrent

% Раздел Тема Автор DL S | L
Кино СССР [ 1.09 GB ] Ты не сирота [1962 СССР DVDRip-AVC от AVP Studio] AVP Studio Скачать
1 | 0


>> Регистрируемся здесь <<






Отзывы и комментарии о схеме читаем и пишем здесь: ---> Отзывы и комментарии о схеме

Новые благодарочки в телеграм довольных пользователей:
скриншот   скриншот   скриншот   скриншот   скриншот

02-03-2019 10:09 Ты не сирота Скачать торрент  

Спасибо!pb.wtf



02-03-2019 12:07 Ты не сирота Скачать торрент  

Хороший фильм ...pb.wtf



02-03-2019 12:39 Ты не сирота Скачать торрент  

хороший фильмpb.wtf



    Дорогой пользователь! Огромная просьба, поблагодарите релизера, оцените раздачу и оставьте свои комментарий, если Вы скачали Ты не сирота через торрент бесплатно! Внесите свою лепту в развитие PiratBit!
    Комментировать посты могут только пользователи прошедшие не сложную регистрацию
    Показать сообщения:    

    Ты не сирота через торрент
    Скачать бесплатно Ты не сирота
    Ты не сирота скачать торрент
    Ты не сирота смотреть онлайн
    Cкачать фильм Ты не сирота бесплатно
    Ты не сирота скачать торрент в хорошем качестве
    Ты не сирота смотреть онлайн бесплатно в хорошем качестве


    Вы не можете начинать темы
    Вы не можете отвечать на сообщения
    Вы не можете редактировать свои сообщения
    Вы не можете удалять свои сообщения
    Вы не можете голосовать в опросах
    Вы не можете прикреплять файлы к сообщениям
    Вы можете скачивать файлы