новый адрес
Ссылка на приватное зеркало всего за 1$. Внимание количество ограничено!!!

iTunes

1+1

iTunes

мы

WEB-DL

1

iTunes

Чернобыль

iTunes

Ральф против интернета

Лицензия

ПШазам

Лицензия

Оно 2

Лицензия

30
pack

Вам бонус

ВАЖНО

!!Акция!!

Alien_RageХит недели

RePack

Resident Evil 21

ИГРА 18+

pack

RePack

jed

!!Акция!!

Alien_Rage

RePack

fifa19

RePack

Assassins Creed: Odyssey

RePack

NEED FOR SPEED™ PAYBACK

3 сезон

9 сезон

Бесстыжие 9 сезон

Все сериалы

все сериалы на PB.wtf

RePack

FAR CRY 5
Ребята, катастрофически не хватает 1900р. для оплаты серверов за Октябрь (всвязи с блокировками трафик упал в 3 раза), 1-2р., выручайте.
  

Вернуть Бена / Ben Is Back (Питер Хеджес) [2018, драма, BDRip] DUB [iTunes] pb.wtf

Вернуть Бена через торрент pb.wtf

Раздают: 4 [ 24 KB/s ]
Размер: 1.45 GB | Добавлен: 9 мес. назад | Торрент скачан:341 раз
Скачать  

02-03-2019 08:05 Вернуть Бена Скачать торрент  

Вернуть Бена / Ben Is Back Год выпуска: 2018
Страна: США
Жанр: драма
Продолжительность: 01:43:18
Перевод: Дублированный | iTunes
Субтитры: Нет

Режиссер: Питер Хеджес

rating

В ролях:

Джулия Робертс, Лукас Хеджес, Кортни Б. Вэнс, Кэтрин Ньютон, Рэйчел Бэй Джонс, Дэвид Залдивар, Александра Парк, Майкл Эспер, Тим Гини, Мира Лукреция Тейлор

Описание:

В канун Рождества Бен Барнс сбегает из реабилитационного центра и возвращается домой. В свое время хлебнувшая с ним горя мать тепло принимает сына, но скоро убеждается, что ничего не изменилось - от парня по-прежнему нужно ждать беды. У нее есть 24 часа, чтобы уберечь сына от опасности. Но как далеко можно зайти, спасая тех, кого мы любим?

Качество: BDRip
Формат: AVI

Видео: Xvid 73, 720x304, ~1614 kbps, 23,976 fps
Аудио: русский, AC3, 5.1 ch, 48 kHz, 384 kbps | iTunes
скриншот  скриншот  скриншот  скриншот  

Общее
Полное имя : E:TorrentBenIsBackBDRip.avi
Формат : AVI
Формат/Информация : Audio Video Interleave
Профиль формата : OpenDML
Размер файла : 1,45 Гбайт
Продолжительность : 1 ч. 43 м.
Общий поток : 2009 Кбит/сек
Программа кодирования : XviD4PSP 6.0 / 54.27.101

Видео
Идентификатор : 0
Формат : MPEG-4 Visual
Профиль формата : Advanced Simple@L5
Настройки формата : BVOP2 / Custom Matrix
Параметр BVOP формата : 2
Параметр QPel формата : Нет
Параметр GMC формата : Без точки перехода
Параметр матрицы формата : Выборочная
Идентификатор кодека : XVID
Идентификатор кодека/Подсказка : XviD
Продолжительность : 1 ч. 43 м.
Битрейт : 1614 Кбит/сек
Ширина : 720 пикселей
Высота : 304 пикселя
Соотношение сторон : 2,35:1
Частота кадров : 23,976 (23976/1000) кадра/сек
Цветовое пространство : YUV
Субдискретизация насыщенности : 4:2:0
Битовая глубина : 8 бит
Тип развёртки : Прогрессивная
Метод сжатия : С потерями
Бит/(Пиксели*Кадры) : 0.308
Размер потока : 1,16 Гбайт (80%)
Библиотека кодирования : XviD 73

Аудио
Идентификатор : 1
Формат : AC-3
Формат/Информация : Audio Coding 3
Идентификатор кодека : 2000
Продолжительность : 1 ч. 43 м.
Вид битрейта : Постоянный
Битрейт : 384 Кбит/сек
Каналы : 6 каналов
Расположение каналов : Front: L C R, Side: L R, LFE
Частота : 48,0 КГц
Частота кадров : 31,250 кадров/сек (1536 SPF)
Битовая глубина : 16 бит
Метод сжатия : С потерями
Размер потока : 283 Мбайт (19%)
Выравнивание : Соединение по промежуткам
Продолжительность промежутка : 32 мс. (0,77 видеокадр)

pb.wtf



Скачать Вернуть Бена через торрент http://lostpix.com/thumbs/2019-03/01/k4mnw0o5tqvw6g1abj7l53slr.png Скачать фильм Вернуть Бена через торрент бесплантно в хорошем качестве Описание: В канун Рождества Бен Барнс сбегает из реабилитационного центра и возвращается домой. В свое время хлебнувшая с ним горя мать ... 9.9 10 7
Info! Золотая раздача, скачанное не засчитывается.
Торрент: Зарегистрирован [2019-03-02 08:05] · скачан: 341 раз
Статус: √ проверено
Размер: 1.45 GB
Как cкачать? Как скачать Вернуть Бена через торрент | qTorrent

% Раздел Тема Автор DL S | L
Фильмы [HD 720p, 1080p] (Хороший звук DUB, MVO) [ 3.62 GB ] Вернуть Бена / Ben Is Back [2018 BDRip 720p] bober100 Скачать
2 | 0
Фильмы [HD 720p, 1080p] (Хороший звук DUB, MVO) [ 6.68 GB ] Вернуть Бена / Ben Is Back [2018 BDRip 1080p] bober100 Скачать
1 | 0

28-11-2019 20:33  

Отключить всю рекламу на сайте

    Дорогой пользователь! Огромная просьба, поблагодарите релизера, оцените раздачу и оставьте свои комментарий, если Вы скачали Вернуть Бена через торрент бесплатно! Внесите свою лепту в развитие PiratBit!
    Комментировать посты могут только пользователи прошедшие не сложную регистрацию
    Показать сообщения:    

    Вернуть Бена через торрент
    Скачать бесплатно Вернуть Бена
    Вернуть Бена скачать торрент
    Вернуть Бена смотреть онлайн
    Cкачать фильм Вернуть Бена бесплатно
    Вернуть Бена скачать торрент в хорошем качестве
    Вернуть Бена смотреть онлайн бесплатно в хорошем качестве


    Вы не можете начинать темы
    Вы не можете отвечать на сообщения
    Вы не можете редактировать свои сообщения
    Вы не можете удалять свои сообщения
    Вы не можете голосовать в опросах
    Вы не можете прикреплять файлы к сообщениям
    Вы можете скачивать файлы