Ссылка на приватное зеркало нашего сайта всего за 1$. Внимание количество ограничено!!!

2 сезон

iTunes

1 сезон

1

2 сезон

2 сезон

iTunes

1 сезон

RePack

30

Новинка

ВАЖНО

ИГРА 18+

pack

RePack

MK11
pack

Забери бонус

RePack

jed

!!Акция!!

Alien_Rage

RePack

fifa19

RePack

Assassins Creed: Odyssey

RePack

NEED FOR SPEED™ PAYBACK

4 сезон

9 сезон

Бесстыжие 9 сезон

Все сериалы

все сериалы на PB.wtf

RePack

FAR CRY 5
  

Вдова / The Widow / Сезон: 1 / Серии: 1-8 из 8 (Оливер Блэкберн, Сэмюэл Донован) [2019, триллер, WEB-DL 1080p] 2x[Sub] (Rus, Eng) pb.wtf

Вдова через торрент pb.wtf

Размер: 20.23 GB | Добавлен: 1 год 8 мес. назад | Торрент скачан:28 раз
Скачать  

02-03-2019 16:50 Вдова Скачать торрент  


Вдова / The Widow

Год выпуска: 2019
Страна: Великобритания
Жанр: триллер
Продолжительность: ~00:50:00
Перевод: Русские субтитры *by Amazon*
Режиссёр: Оливер Блэкберн, Сэмюэл Донован

В ролях: Кейт Бекинсейл, Алекс Кингстон, Бабс Олусанмокун, Чарльз Дэнс, Оулавюр Дарри Оулафссон, Джеки Идо, Барт Фаш, Мэттью Ле Невез и другие.
Описание: Муж Джоржии погиб в результате авиакатастрофы. Ну, или так все считают, ведь его тела среди погибших не обнаружилось. Постепенно женщина понимает, что всё гораздо сложнее, чем кажется на первый взгляд, и отправляется в опасное путешествие на поиски пропавшего супруга.



Качество: WEB-DL 1080p
Формат: MKV
Видео: AVC/H.264, 1920x1080 (16:9), ~8300 kbps
Аудио Eng: E-AC3, 48 kHz, 6 ch, 640 kbps
Субтитры: Русские, английские
General
Unique ID : 267367165111096807392204047501618652443 (0xC9250AFE55AB8BFA5111AE7E76C9251B)
Complete name : E:\The Widow 2019\S01E01.mkv
Format : Matroska
Format version : Version 4 / Version 2
File size : 2.87 GiB
Duration : 49 min 17 s
Overall bit rate : 8 329 kb/s
Encoded date : UTC 2019-03-02 15:08:40
Writing application : mkvmerge v30.1.0 ('Forever And More') 64-bit
Writing library : libebml v1.3.6 + libmatroska v1.4.9

Video
ID : 1
Format : AVC
Format/Info : Advanced Video Codec
Format profile : High@L4
Format settings : CABAC / 4 Ref Frames
Format settings, CABAC : Yes
Format settings, RefFrames : 4 frames
Codec ID : V_MPEG4/ISO/AVC
Duration : 49 min 17 s
Bit rate mode : Constant
Bit rate : 7 523 kb/s
Nominal bit rate : 10 000 kb/s
Width : 1 920 pixels
Height : 1 080 pixels
Display aspect ratio : 16:9
Frame rate mode : Constant
Frame rate : 25.000 FPS
Color space : YUV
Chroma subsampling : 4:2:0
Bit depth : 8 bits
Scan type : Progressive
Bits/(Pixel*Frame) : 0.145
Stream size : 2.59 GiB (90%)
Language : English
Default : Yes
Forced : No
Color range : Limited
Color primaries : BT.709
Transfer characteristics : BT.709
Matrix coefficients : BT.709

Audio
ID : 2
Format : E-AC-3
Format/Info : Enhanced Audio Coding 3
Format settings, Endianness : Big
Codec ID : A_EAC3
Duration : 49 min 17 s
Bit rate mode : Constant
Bit rate : 640 kb/s
Channel(s) : 6 channels
Channel positions : Front: L C R, Side: L R, LFE
Sampling rate : 48.0 kHz
Frame rate : 187.500 FPS (256 SPF)
Compression mode : Lossy
Stream size : 226 MiB (8%)
Language : English
Service kind : Complete Main
Default : Yes
Forced : No

Text #1
ID : 3
Format : UTF-8
Codec ID : S_TEXT/UTF8
Codec ID/Info : UTF-8 Plain Text
Language : Russian
Default : No
Forced : No

Text #2
ID : 4
Format : UTF-8
Codec ID : S_TEXT/UTF8
Codec ID/Info : UTF-8 Plain Text
Title : Forced
Language : English
Default : No
Forced : Yes

Text #3
ID : 5
Format : UTF-8
Codec ID : S_TEXT/UTF8
Codec ID/Info : UTF-8 Plain Text
Language : English
Default : No
Forced : No

Text #4
ID : 6
Format : UTF-8
Codec ID : S_TEXT/UTF8
Codec ID/Info : UTF-8 Plain Text
Title : SDH
Language : English
Default : No
Forced : No

Menu
00:00:00.000 : en:Amazon Original
00:00:05.000 : en:Climbing to see the top of the world
00:01:48.000 : en:Meanwhile in Wales...
00:03:08.000 : en:Title Sequence
00:03:12.000 : en:Remembering life with Will
00:07:13.000 : en:Something on the TV catches Georgia's eye
00:10:55.000 : en:Small price to pay for a miracle
00:13:49.000 : en:Seeking help from an old friend
00:16:37.000 : en:The Minister of Transport addresses the families
00:20:17.000 : en:Georgia arrives back in Kinshasa
00:26:44.000 : en:Suspicions around Will's death
00:27:57.000 : en:Recruitment
00:30:15.000 : en:The sole survivor
00:32:23.000 : en:Emmanuel finds something peculiar
00:37:11.000 : en:A light of hope in the darkness
00:40:53.000 : en:A stranger arrives
00:41:57.000 : en:Some people are just rotten
00:47:08.000 : en:Georgia gets a warning
00:48:36.000 : en:End Credits
скриншот  скриншот  скриншот  
Внимание! Раздача ведётся путём добавления новых серий; при каждом добавлении создаётся новый торрент. Чтобы начать докачку новой серии, пользователям необходимо сделать следующее:
(1) остановить скачивание,
(2) удалить старый торрент у себя из клиента (старые серии удалять не надо),
(3) скачать новый торрент и запустить его у себя в клиенте вместо старого, при этом указать клиенту путь в старую папку куда и должно происходить скачивание новых серий.

Ваш клиент при этом должен произвести хеширование (проверку) старой папки (если не производит сам - помогите ему сделать это), и будет докачивать только те серии которых у вас ещё нет. Старые серии при этом не удаляются, а продолжают раздаваться!

Eсли вы уже удалили старые серии, то предотвратить повторную закачку старых серий можно, отжав галочку в соответствующих местах при запуске нового торрента. По возможности, желательно не удалять старые серии как можно дольше чтобы релизёр не столько продолжал раздавать старые серии, а смог сконцентрироваться на новых.
pb.wtf



Скачать Вдова через торрент https://i110.fastpic.ru/big/2019/0302/7a/03cadabeb0256672e9353b114d0bea7a.jpg Скачать фильм Вдова через торрент бесплантно в хорошем качестве Описание: Муж Джоржии погиб в результате авиакатастрофы. Ну, или так все считают, ведь его тела среди погибших не обнаружилось. Постепенно ... 10 10 2
Торрент: Зарегистрирован [2019-03-02 16:50] · скачан: 28 раз
Статус: √ проверено
Размер: 20.23 GB
Как cкачать? Как скачать Вдова через торрент | qTorrent

% Раздел Тема Автор DL S | L
Зарубежные сериалы [ 94.67 GB ] Вдова / The Widow / Сезон: 1 / Серии: 1-8 из 8 [2019 UHD WEB-DL 2160p] [SDR] MVO [TVShows] sheker187 Скачать
1 | 0
Зарубежные сериалы [ 21.22 GB ] Вдова / The Widow / Сезон: 1 / Серии: 1-8 из 8 [2019 WEB-DL 1080p] [MVO] killermax2013 Скачать
1 | 0
Зарубежные сериалы [ 6.18 GB ] Вдова / The Widow / Сезон: 1 / Серии: 1-8 из 8 [2019 WEB-DLRip] [MVO] killermax2013 Скачать
2 | 0
Зарубежные сериалы [ 8.4 GB ] Вдова / The Widow / Сезон: 1 / Серии: 1-8 из 8 [2019 WEB-DLRip 720p] [MVO] killermax2013 Скачать
1 | 0
Зарубежные сериалы [ 20.56 GB ] Вдова / The Widow / Сезон: 1 / Серии: 1-8 из 8 [2019 WEB-DL 1080p] [MVO] killermax2013 Скачать
1 | 0

28-11-2019 20:33  

Отключить всю рекламу на сайте

02-03-2019 17:14 Вдова Скачать торрент  

Бро спасибо pb.wtf



03-03-2019 13:45 Вдова Скачать торрент  

Ради Кейт посмотрю! Спасибо! )))pb.wtf



    Дорогой пользователь! Огромная просьба, поблагодарите релизера, оцените раздачу и оставьте свои комментарий, если Вы скачали Вдова через торрент бесплатно! Внесите свою лепту в развитие PiratBit!
    Комментировать посты могут только пользователи прошедшие не сложную регистрацию
    Показать сообщения:    

    Вдова через торрент
    Скачать бесплатно Вдова
    Вдова скачать торрент
    Вдова смотреть онлайн
    Cкачать фильм Вдова бесплатно
    Вдова скачать торрент в хорошем качестве
    Вдова смотреть онлайн бесплатно в хорошем качестве


    Вы не можете начинать темы
    Вы не можете отвечать на сообщения
    Вы не можете редактировать свои сообщения
    Вы не можете удалять свои сообщения
    Вы не можете голосовать в опросах
    Вы не можете прикреплять файлы к сообщениям
    Вы можете скачивать файлы