Ссылка на приватное зеркало нашего сайта всего за 1$. Внимание количество ограничено!!!

2 сезон

iTunes

1 сезон

1

2 сезон

2 сезон

iTunes

1 сезон

RePack

30

Ultimate

ВАЖНО

ИГРА 18+

pack

RePack

MK11
pack

Забери бонус

RePack

jed

!!Акция!!

Alien_Rage

RePack

fifa19

RePack

Assassins Creed: Odyssey

RePack

NEED FOR SPEED™ PAYBACK

4 сезон

9 сезон

Бесстыжие 9 сезон

Все сериалы

все сериалы на PB.wtf

RePack

FAR CRY 5
  

Чудеса / Le meraviglie (Аличе Рорвахер / Alice Rohrwacher) [2014, драма, WEB-DL 1080p] [MVO] [iTunes] pb.wtf

Чудеса через торрент pb.wtf

Размер: 4.67 GB | Добавлен: 1 год 8 мес. назад | Торрент скачан:34 раза
Скачать  

02-03-2019 21:25 Чудеса Скачать торрент  

Чудеса / Le meraviglie
Год выпуска: 2014
Страна: Италия, Швейцария, Германия
Студия: Rai Cinema, Tempesta
Жанр: драма
Продолжительность: 01:51:15
Перевод: Профессиональный (многоголосый закадровый) [iTunes ]
Субтитры: русские (nestejatel), английские

Режиссер: Аличе Рорвахер / Alice Rohrwacher
В ролях: Альба Рорвахер, Мария Александра Лунгу, Сэм Лаувейк, Сабина Тимотео, Агнес Гразиани, Моника Беллуччи, Андре Хеннике, Луис Уилька, Ева Лея Пасе Морроу, Марис Стелла Морроу

Описание: На севере итальянской провинции Тоскана живет многодетная семья. Ее патриархальный образ жизни ревниво охраняется главой семейства. Однако, устои начинают рушиться, когда в деревню пребывает съемочная группа.
rating
Сэмпл |

Тип релиза: WEB-DL 1080p
Контейнер: MKV
Видео: MPEG-4 AVC (High@L4.0); 1920x1040, Display aspect ratio 1.85:1, 24.000 fps, 5171 Kbps
Аудио 1: Русский: AC-3; 16 bits 48 Khz; 5.1ch 384 Kbps; CBR | MVO по заказу "Пилот Кино" / (iTunes)
Аудио 2: Итальянский: AC-3; 16 bits 48 Khz; 5.1ch 448 Kbps; CBR | Original ita
Формат субтитров: softsub (SRT)
General
Unique ID : 248529301389158742864758848823853129623 (0xBAF9009AAF4C5C5B993E8DA1733D1F97)
Complete name : Чудеса.2014.mkv
Format : Matroska
Format version : Version 2
File size : 4.67 GiB
Duration : 1 h 51 min
Overall bit rate : 6 006 kb/s
Encoded date : UTC 2019-03-01 11:44:09
Writing application : mkvmerge v7.8.0 ('River Man') 32bit built on Mar 27 2015 16:18:02
Writing library : libebml v1.3.1 + libmatroska v1.4.2

Video
ID : 1
Format : AVC
Format/Info : Advanced Video Codec
Format profile : High@L4
Format settings : CABAC / 4 Ref Frames
Format settings, CABAC : Yes
Format settings, ReFrames : 4 frames
Codec ID : V_MPEG4/ISO/AVC
Duration : 1 h 51 min
Bit rate : 5 054 kb/s
Width : 1 920 pixels
Height : 1 040 pixels
Display aspect ratio : 1.85:1
Frame rate mode : Constant
Frame rate : 24.000 FPS
Color space : YUV
Chroma subsampling : 4:2:0
Bit depth : 8 bits
Scan type : Progressive
Bits/(Pixel*Frame) : 0.105
Stream size : 3.93 GiB (84%)
Title : Чудеса / Le meraviglie 2014
Language : Italian
Default : Yes
Forced : No
Color range : Limited
Color primaries : BT.709
Transfer characteristics : BT.709
Matrix coefficients : BT.709

Audio #1
ID : 2
Format : AC-3
Format/Info : Audio Coding 3
Codec ID : A_AC3
Duration : 1 h 51 min
Bit rate mode : Constant
Bit rate : 384 kb/s
Channel(s) : 6 channels
Channel positions : Front: L C R, Side: L R, LFE
Sampling rate : 48.0 kHz
Frame rate : 31.250 FPS (1536 SPF)
Bit depth : 16 bits
Compression mode : Lossy
Stream size : 306 MiB (6%)
Title : AC-3; 16 bits 48 Khz; 5.1ch 384 Kbps; CBR | MVO "Пилот Кино" (iTunes)
Language : Russian
Service kind : Complete Main
Default : Yes
Forced : No

Audio #2
ID : 3
Format : AC-3
Format/Info : Audio Coding 3
Codec ID : A_AC3
Duration : 1 h 51 min
Bit rate mode : Constant
Bit rate : 448 kb/s
Channel(s) : 6 channels
Channel positions : Front: L C R, Side: L R, LFE
Sampling rate : 48.0 kHz
Frame rate : 31.250 FPS (1536 SPF)
Bit depth : 16 bits
Compression mode : Lossy
Stream size : 356 MiB (7%)
Title : AC-3; 16 bits 48 Khz; 5.1ch 448 Kbps; CBR | Original ita
Language : Italian
Service kind : Complete Main
Default : No
Forced : No

Text #1
ID : 4
Format : UTF-8
Codec ID : S_TEXT/UTF8
Codec ID/Info : UTF-8 Plain Text
Title : Субтитры русские (nestejatel)
Language : Russian
Default : No
Forced : No

Text #2
ID : 5
Format : UTF-8
Codec ID : S_TEXT/UTF8
Codec ID/Info : UTF-8 Plain Text
Title : Субтитры английские
Language : English
Default : No
Forced : No
скриншот  скриншот  скриншот  
pb.wtf



Скачать Чудеса через торрент http://img10.lostpic.net/2019/03/01/d86113ee9476c567b0de2e4fa0a41568.png Скачать фильм Чудеса через торрент бесплантно в хорошем качестве Описание: На севере итальянской провинции Тоскана живет многодетная семья. Ее патриархальный образ жизни ревниво охраняется главой ... 10 10 4
Торрент: Зарегистрирован [2019-03-02 21:25] · скачан: 34 раз
Статус: √ проверено
Размер: 4.67 GB
Как cкачать? Как скачать Чудеса через торрент | qTorrent

% Раздел Тема Автор DL S | L
Фильмы 2014 [DVDrip, WEB-DLRip, HDrip] [ 1.48 GB ] Чудеса / Le meraviglie [2014 WEB-DLRip] [MVO] killermax2013 Скачать
1 | 0

28-11-2019 20:33  

Отключить всю рекламу на сайте

    Дорогой пользователь! Огромная просьба, поблагодарите релизера, оцените раздачу и оставьте свои комментарий, если Вы скачали Чудеса через торрент бесплатно! Внесите свою лепту в развитие PiratBit!
    Комментировать посты могут только пользователи прошедшие не сложную регистрацию
    Показать сообщения:    

    Чудеса через торрент
    Скачать бесплатно Чудеса
    Чудеса скачать торрент
    Чудеса смотреть онлайн
    Cкачать фильм Чудеса бесплатно
    Чудеса скачать торрент в хорошем качестве
    Чудеса смотреть онлайн бесплатно в хорошем качестве


    Вы не можете начинать темы
    Вы не можете отвечать на сообщения
    Вы не можете редактировать свои сообщения
    Вы не можете удалять свои сообщения
    Вы не можете голосовать в опросах
    Вы не можете прикреплять файлы к сообщениям
    Вы можете скачивать файлы