Ссылка на приватное зеркало нашего сайта всего за 1$. Внимание количество ограничено!!!

2 сезон

iTunes

1 сезон

1

iTunes

iTunes

iTunes

1 сезон

RePack

30

ИГРА 18+

pack

ВАЖНО

!!Акция!!

Alien_RageХит недели

RePack

MK11
pack

Забери бонус

RePack

jed

!!Акция!!

Alien_Rage

RePack

fifa19

RePack

Assassins Creed: Odyssey

RePack

NEED FOR SPEED™ PAYBACK

4 сезон

9 сезон

Бесстыжие 9 сезон

Все сериалы

все сериалы на PB.wtf

RePack

FAR CRY 5
  

Стражи Отчизны / Сезон: 1 / Серии: 1-8 из 8 (Михаил Колпахчиев) [2019, боевик, SATRip] pb.wtf

Стражи Отчизны через торрент pb.wtf

Размер: 4.69 GB | Добавлен: 1 год 7 мес. назад | Торрент скачан:139 раз
Скачать  

03-03-2019 14:12 Стражи Отчизны Скачать торрент  

Стражи Отчизны Год выпуска: 2019
Страна: Россия
Жанр: боевик
Продолжительность: ~ 00:47:00
Перевод: Не требуется
Субтитры: отсутствуют

Режиссер: Михаил Колпахчиев



В ролях:

Александр Сластин, Сергей Воробьёв (IV), Дмитрий Лавров (III), Яков Шамшин, Дарья Ленда, Артём Руденко, Пётр Журавлёв, Олег Хамитов, Светлана Питерская

Описание:

«Стражи Отчизны» – секретное подразделение «спящих» агентов. Созданное в 90-х, оно не раз спасало Россию. В 2000-х от группы осталось всего два агента. Их погрузили в состояние глубокого гипноза и придумали «мирные» биографии. Кто они на самом деле, знает только генерал Вавилов – лидер «Стражей». Только он может их «разбудить». Час настал! Уже на первом задании к «Стражам» примыкают два новых агента. Теперь их четверо. И борьба только начинается. Отступать некуда – позади Великая Родина.

Качество: SATRip
Формат: AVI

Видео: XviD, ~ 1700 Кбит/с, 720х400
Аудио: MP3, 2 ch, 192 Кбит/с
скриншот  скриншот  скриншот  скриншот  

Общее
Полное имя : E:\Strazhi.Otchizny.2018.XviD.SATRip.25Kuzmich\Strazhi.Otchizny.(01.seriya.iz.08).XviD.SATRip.25Kuzmich.avi
Формат : AVI
Формат/Информация : Audio Video Interleave
Размер файла : 600 Мбайт
Продолжительность : 46 м. 31 с.
Общий поток : 1803 Кбит/сек
Программа кодирования : VirtualDubMod 1.5.10.3 | www.virtualdub-fr.org || (build 2550/release)
Библиотека кодирования : VirtualDubMod build 2550/release

Видео
Идентификатор : 0
Формат : MPEG-4 Visual
Профиль формата : Advanced Simple@L5
Настройки формата : BVOP1
Параметр BVOP формата : 1
Параметр QPel формата : Нет
Параметр GMC формата : Без точки перехода
Параметр матрицы формата : Default (MPEG)
Идентификатор кодека : XVID
Идентификатор кодека/Подсказка : XviD
Продолжительность : 46 м. 31 с.
Битрейт : 1601 Кбит/сек
Ширина : 720 пикселей
Высота : 400 пикселей
Соотношение сторон : 16:9
Частота кадров : 25,000 кадров/сек
Цветовое пространство : YUV
Субдискретизация насыщенности : 4:2:0
Битовая глубина : 8 бит
Тип развёртки : Прогрессивная
Метод сжатия : С потерями
Бит/(Пиксели*Кадры) : 0.222
Размер потока : 533 Мбайт (89%)
Библиотека кодирования : XviD 65

Аудио
Идентификатор : 1
Формат : MPEG Audio
Версия формата : Version 1
Профиль формата : Layer 3
Настройки формата : Joint stereo / MS Stereo
Идентификатор кодека : 55
Идентификатор кодека/Подсказка : MP3
Продолжительность : 46 м. 31 с.
Вид битрейта : Постоянный
Битрейт : 192 Кбит/сек
Каналы : 2 канала
Частота : 48,0 КГц
Частота кадров : 41,667 кадра/сек (1152 SPF)
Метод сжатия : С потерями
Размер потока : 63,9 Мбайт (11%)
Выравнивание : Соединение по промежуткам
Продолжительность промежутка : 40 мс. (1,00 видеокадр)
Время предзагрузки промежутка : 504 мс.
Библиотека кодирования : LAME3.99r
Настройки программы : -m j -V 4 -q 2 -lowpass 18.6 -b 192

Когда раздача ведётся путём добавления новых серий, при каждом добавлении создётся новый торрент. Чтобы начать докачку новой серии, пользователям необходимо сделать следующее:
(1) остановить скачивание,
(2) удалить старый торрент у себя из клиента (старые серии удалять не надо),
(3) скачать новый торрент и запустить его у себя в клиенте вместо старого, при этом указать клиенту путь в старую папку, куда и должно происходить скачивание новых серий.
Ваш клиент при этом должен произвести хеширование (проверку) старой папки (если не производит сам - помогите ему сделать это), и будет докачивать только те серии, которых у вас ещё нет. Старые серии при этом не удаляются, а продолжают раздаваться!
Eсли вы уже удалили старые серии, то предотвратить повторную закачку старых серий можно, отжав галочку в соответсвующих местах при запуске нового торрента. По возможности, желательно не удалять старые серии как можно дольше, чтобы релизёр не столько продолжал раздавать старые серии, а смог сконцентрироваться на новых.
pb.wtf



Скачать Стражи Отчизны через торрент http://img10.lostpic.net/2019/03/03/c5939515986b7f9de9f49100beb16a21.jpg Скачать фильм Стражи Отчизны через торрент бесплантно в хорошем качестве Описание: «Стражи Отчизны» – секретное подразделение «спящих» агентов. Созданное в 90-х, оно не раз спасало Россию. В 2000-х от группы ... 10 10 6
Торрент: Зарегистрирован [2019-03-03 20:17] · скачан: 139 раз
Статус: √ проверено
Размер: 4.69 GB
Как cкачать? Как скачать Стражи Отчизны через торрент | qTorrent

% Раздел Тема Автор DL S | L
Наши сериалы [ 4.48 GB ] Стражи Отчизны / Сезон: 1 / Серии: 1-8 из 8 [2019 WEB-DLRip-AVC] bober100 Скачать
1 | 0
Наши сериалы [ 9.31 GB ] Стражи Отчизны / Сезон: 1 / Серии: 1-8 из 8 [2019 WEB-DL 720p] bober100 Скачать
2 | 0
Наши сериалы [ 4.5 GB ] Стражи Отчизны / Сезон: 1 / Серии: 1-8 из 8 [2019 WEB-DLRip] bober100 Скачать
1 | 0


Последний раз редактировалось: bober100 (2019-03-07 23:59), всего редактировалось 2 раз(а)

28-11-2019 20:33  

Отключить всю рекламу на сайте

03-03-2019 16:39 Стражи Отчизны Скачать торрент  

Как пафосно '' спасать Рассею'' -вы ,для начала,какой-нибудь городок или там улицу,дом,квартал спасите мдя...Синдром ''Супер Хероев'' во весь ростpb.wtf



03-03-2019 17:57 Стражи Отчизны Скачать торрент  

Wapentake666 писал(а):

Как пафосно '' спасать Рассею'' -вы ,для начала,какой-нибудь городок или там улицу,дом,квартал спасите мдя...Синдром ''Супер Хероев'' во весь рост

Может гостиницу ? pb.wtf



    Дорогой пользователь! Огромная просьба, поблагодарите релизера, оцените раздачу и оставьте свои комментарий, если Вы скачали Стражи Отчизны через торрент бесплатно! Внесите свою лепту в развитие PiratBit!
    Комментировать посты могут только пользователи прошедшие не сложную регистрацию
    Показать сообщения:    

    Стражи Отчизны через торрент
    Скачать бесплатно Стражи Отчизны
    Стражи Отчизны скачать торрент
    Стражи Отчизны смотреть онлайн
    Cкачать фильм Стражи Отчизны бесплатно
    Стражи Отчизны скачать торрент в хорошем качестве
    Стражи Отчизны смотреть онлайн бесплатно в хорошем качестве


    Вы не можете начинать темы
    Вы не можете отвечать на сообщения
    Вы не можете редактировать свои сообщения
    Вы не можете удалять свои сообщения
    Вы не можете голосовать в опросах
    Вы не можете прикреплять файлы к сообщениям
    Вы можете скачивать файлы