2 сезон

iTunes

1 сезон

1

iTunes

iTunes

iTunes

1 сезон

RePack

30

ИГРА 18+

pack

ВАЖНО

!!Акция!!

Alien_RageХит недели

RePack

MK11
pack

Забери бонус

RePack

jed

!!Акция!!

Alien_Rage

RePack

fifa19

RePack

Assassins Creed: Odyssey

RePack

NEED FOR SPEED™ PAYBACK

4 сезон

9 сезон

Бесстыжие 9 сезон

Все сериалы

все сериалы на PB.wtf

RePack

FAR CRY 5
  

Черный пес / Серии: 1-4 из 4 (Александр Франскевич-Лайе, Владимир Янковский) [2019, боевик, WEBRip] pb.wtf

Черный пес через торрент pb.wtf

Размер: 2.18 GB | Добавлен: 1 год 7 мес. назад | Торрент скачан:262 раза
Скачать  

04-03-2019 00:42 Черный пес Скачать торрент  

Черный песГод выпуска: 2019
Страна: Россия
Жанр: боевик
Продолжительность: ~ 00:47:00
Субтитры: отсутствуют

Режиссер: Александр Франскевич-Лайе, Владимир Янковский



В ролях:

Владимир Епифанцев, Карина Разумовская, Павел Делонг, Игорь Сигов, Павел Южаков-Харланчук, Александр Аверков, Виктория Маслова, Александр Франскевич-Лайе, Анатолий Кот, Владимир Иванов

Описание:

Торговец оружием международного масштаба Грэг Бриннер заключает сделку с одним из главарей террористов из серийной группировки о поставках компонентов оружия массового поражения. Для захвата Бриннера и уничтожения террористов в Сирию отправляют спецгруппу под командованием майора Андрея Рубцова. В результате успешной операции Бриннер захвачен, но предательство "союзника" приводит к гибели группы Рубцова. Однако Андрей остаётся жив. Спустя время он возвращается в Россию, но ничего не помнит. Вернуть память и поймать Бриннера Рубцову помогает сотрудница международной антитеррористической организации Ольга Смирнова.

Качество: WEBRip
Формат: AVI

Видео: XviD build 73, 720x368 (1.957), 25.000 fps, ~ 1570 Kbps (~ 0.237 bit/pixel)
Аудио: 48.0 kHz, AC3, 2/0 ch, 192 kbps
скриншот  скриншот  скриншот  скриншот  скриншот  

General
Complete name : D:RazdachiChernyj.Pes.2018.WEBRip.GeneralFilmChernyj.Pes.e01.avi
Format : AVI
Format/Info : Audio Video Interleave
File size : 557 MiB
Duration : 43 min 52 s
Overall bit rate : 1 775 kb/s
Writing application : VirtualDubMod 1.5.10.3 | www.virtualdub-fr.org || (build 2550/release)
Writing library : VirtualDubMod build 2550/release

Video
ID : 0
Format : MPEG-4 Visual
Format profile : Advanced Simple@L5
Format settings : BVOP1 / Custom Matrix
Format settings, BVOP : 1
Format settings, QPel : No
Format settings, GMC : No warppoints
Format settings, Matrix : Custom
Codec ID : XVID
Codec ID/Hint : XviD
Duration : 43 min 52 s
Bit rate : 1 573 kb/s
Width : 720 pixels
Height : 368 pixels
Display aspect ratio : 1.957
Frame rate : 25.000 FPS
Color space : YUV
Chroma subsampling : 4:2:0
Bit depth : 8 bits
Scan type : Progressive
Compression mode : Lossy
Bits/(Pixel*Frame) : 0.237
Stream size : 494 MiB (89%)
Writing library : XviD 73

Audio
ID : 1
Format : AC-3
Format/Info : Audio Coding 3
Commercial name : Dolby Digital
Codec ID : 2000
Duration : 43 min 52 s
Bit rate mode : Constant
Bit rate : 192 kb/s
Channel(s) : 2 channels
Channel layout : L R
Sampling rate : 48.0 kHz
Frame rate : 31.250 FPS (1536 SPF)
Bit depth : 16 bits
Compression mode : Lossy
Stream size : 60.3 MiB (11%)
Alignment : Split accross interleaves
Interleave, duration : 40 ms (1.00 video frame)
Interleave, preload duratio : 500 ms
Service kind : Complete Main

pb.wtf



Скачать Черный пес через торрент http://www.kino-teatr.ru/movie/posters/big/1/127271.jpg Скачать фильм Черный пес через торрент бесплантно в хорошем качестве Описание: Торговец оружием международного масштаба Грэг Бриннер заключает сделку с одним из главарей террористов из серийной группировки о ... 10 10 6
Торрент: Зарегистрирован [2019-03-04 00:42] · скачан: 262 раз
Статус: √ проверено
Размер: 2.18 GB
Как cкачать? Как скачать Черный пес через торрент | qTorrent

% Раздел Тема Автор DL S | L
Наши сериалы [ 2.13 GB ] Чёрный пёс / Серии: 1-4 из 4 [2019 SATRip-AVC] aleksan55 Скачать
1 | 0
Наши сериалы [ 2.69 GB ] Черный пес / Серии: 1-4 из 4 [2019 WEBRip-AVC] bober100 Скачать
1 | 0
Наши сериалы [ 7.4 GB ] Черный пес / Серии: 1-4 из 4 [2019 WEB-DL 1080p] bober100 Скачать
1 | 0
Наши сериалы [ 2.34 GB ] Черный пес / Серии: 1-4 из 4 [2019 SATRip] bober100 Скачать
1 | 0

28-11-2019 20:33  

Отключить всю рекламу на сайте

    Дорогой пользователь! Огромная просьба, поблагодарите релизера, оцените раздачу и оставьте свои комментарий, если Вы скачали Черный пес через торрент бесплатно! Внесите свою лепту в развитие PiratBit!
    Комментировать посты могут только пользователи прошедшие не сложную регистрацию
    Показать сообщения:    

    Черный пес через торрент
    Скачать бесплатно Черный пес
    Черный пес скачать торрент
    Черный пес смотреть онлайн
    Cкачать фильм Черный пес бесплатно
    Черный пес скачать торрент в хорошем качестве
    Черный пес смотреть онлайн бесплатно в хорошем качестве


    Вы не можете начинать темы
    Вы не можете отвечать на сообщения
    Вы не можете редактировать свои сообщения
    Вы не можете удалять свои сообщения
    Вы не можете голосовать в опросах
    Вы не можете прикреплять файлы к сообщениям
    Вы можете скачивать файлы