новый адрес
Ссылка на приватное зеркало всего за 1$. Внимание количество ограничено!!!

iTunes

1+1

iTunes

мы

WEB-DL

1

iTunes

Чернобыль

iTunes

Ральф против интернета

Лицензия

ПШазам

Лицензия

Оно 2

Лицензия

30
pack

Вам бонус

ВАЖНО

!!Акция!!

Alien_RageХит недели

RePack

Resident Evil 21

ИГРА 18+

pack

RePack

jed

!!Акция!!

Alien_Rage

RePack

fifa19

RePack

Assassins Creed: Odyssey

RePack

NEED FOR SPEED™ PAYBACK

3 сезон

9 сезон

Бесстыжие 9 сезон

Все сериалы

все сериалы на PB.wtf

RePack

FAR CRY 5
Ребята, катастрофически не хватает 1900р. для оплаты серверов за Октябрь (всвязи с блокировками трафик упал в 3 раза), 1-2р., выручайте.
  

Одинокая женщина / A Lonely Woman (Хувен Кавасос) [2018, триллер, драма, криминал, WEB-DLRip-AVC] MVO [HDRezka Studio] - ExKinoRay pb.wtf

Одинокая женщина через торрент pb.wtf

Размер: 1.45 GB | Добавлен: 9 мес. назад | Торрент скачан:141 раз
Скачать  

04-03-2019 04:28 Одинокая женщина Скачать торрент  

Название: Одинокая женщина
Оригинальное название: A Lonely Woman
Год выпуска: 2018
Жанр: Триллер, драма, криминал
Режиссер: Хувен Кавасос
В ролях: Юлика Скафида, Бо Йотти, Бразил Джозеф Грисафи III, Майкл Тула, Крис Форс, Томми Пойнтер, Ребекка Карповски, Элайджа Бекетт, Ди-Ана Мари, Гай В Дж Мэйфилд

Описание:
Приёмных родителей скромной и безобидной девушки из небольшого городка жестоко убивают. Устав от бездействия полиции, Анна начинает мстить. Трагедия открывает в ней мрачную и жестокую сторону — она берет в руки пистолет, садится на мощный байк, надевает кожаную куртку, называет себя Жезабель и открывает сезон охоты на преступную группировку, которая лишила её близких. Одержимая жаждой мести, Жезабель готова пойти на всё, чтобы добиться справедливости. Вот только случайная встреча с загадочным незнакомцем грозит полностью разрушить её планы.


rating

Выпущено: США, Vicven Films Productions
Продолжительность: 01:45:03
Перевод: Профессиональный (многоголосый, закадровый) | HDRezka Studio
Субтитры: English Full

БЕЗ КАКОЙ-ЛИБО РЕКЛАМЫ!

Формат: MKV
Качество: WEB-DLRip-AVC
Видео: MPEG-4 AVC, 720x300 (2.40:1), 23.976 fps, 1778 Kbps, 0.343 bit/pixel
Аудио: 48 kHz, AC3, 2.0, 192 Kbps | RUS |
General
Unique ID : 203100589757408250049325371050073534245 (0x98CBC0316426227D8C22833D56382F25)
Complete name : D:\A.Lonely.Woman.2018.MVO.AMZN.WEB-DLRip.AVC.ExKinoRay.mkv
Format : Matroska
Format version : Version 2
File size : 1.45 GiB
Duration : 1 h 45 min
Overall bit rate : 1 969 kb/s
Movie name : A Lonely Woman 2018 from ExKinoRay
Encoded date : UTC 2019-03-04 01:40:22
Writing application : mkvmerge v5.6.0 ('Kenya Kane') built on May 27 2012 16:44:04
Writing library : libebml v1.2.3 + libmatroska v1.3.0

Video
ID : 1
Format : AVC
Format/Info : Advanced Video Codec
Format profile : High@L4.1
Format settings, CABAC : Yes
Format settings, ReFrames : 12 frames
Codec ID : V_MPEG4/ISO/AVC
Duration : 1 h 45 min
Bit rate : 1 778 kb/s
Width : 720 pixels
Height : 300 pixels
Display aspect ratio : 2.40:1
Frame rate mode : Constant
Frame rate : 23.976 (24000/1001) FPS
Original frame rate : 23.976 (23976/1000) FPS
Color space : YUV
Chroma subsampling : 4:2:0
Bit depth : 8 bits
Scan type : Progressive
Bits/(Pixel*Frame) : 0.343
Stream size : 1.28 GiB (88%)
Title : Enigma
Writing library : x264 core 152 r2851 ba24899
Encoding settings : cabac=1 / ref=12 / deblock=1:-2:-2 / analyse=0x3:0x113 / me=umh / subme=10 / psy=1 / psy_rd=1.03:0.05 / mixed_ref=1 / me_range=32 / chroma_me=1 / trellis=2 / 8x8dct=1 / cqm=0 / deadzone=21,11 / fast_pskip=0 / chroma_qp_offset=-3 / threads=9 / lookahead_threads=2 / sliced_threads=0 / nr=0 / decimate=0 / interlaced=0 / bluray_compat=0 / constrained_intra=0 / bframes=10 / b_pyramid=2 / b_adapt=2 / b_bias=0 / direct=3 / weightb=1 / open_gop=0 / weightp=2 / keyint=240 / keyint_min=23 / scenecut=40 / intra_refresh=0 / rc=2pass / mbtree=0 / bitrate=1778 / ratetol=1.0 / qcomp=0.60 / qpmin=0 / qpmax=51 / qpstep=4 / cplxblur=20.0 / qblur=0.5 / ip_ratio=1.30 / pb_ratio=1.20 / aq=1:1.00
Default : Yes
Forced : No
Color range : Limited
Color primaries : BT.709
Transfer characteristics : BT.709
Matrix coefficients : BT.709

Audio
ID : 2
Format : AC-3
Format/Info : Audio Coding 3
Mode extension : CM (complete main)
Format settings, Endianness : Big
Codec ID : A_AC3
Duration : 1 h 45 min
Bit rate mode : Constant
Bit rate : 192 kb/s
Channel(s) : 2 channels
Channel positions : Front: L R
Sampling rate : 48.0 kHz
Frame rate : 31.250 FPS (1536 spf)
Compression mode : Lossy
Stream size : 144 MiB (10%)
Title : MVO (HDRezka)
Language : Russian
Default : Yes
Forced : No

Text
ID : 3
Format : UTF-8
Codec ID : S_TEXT/UTF8
Codec ID/Info : UTF-8 Plain Text
Language : English
Default : No
Forced : No
Релиз от:

Автор релиза: pb.wtf



Скачать Одинокая женщина через торрент https://d.radikal.ru/d04/1901/c2/ce3290925717.jpg Скачать фильм Одинокая женщина через торрент бесплантно в хорошем качестве Описание: Приёмных родителей скромной и безобидной девушки из небольшого городка жестоко убивают. Устав от бездействия полиции, Анна ... 9.7 10 6
Info! Золотая раздача, скачанное не засчитывается.
Торрент: Зарегистрирован [2019-03-04 04:28] · скачан: 141 раз
Статус: T временная
Размер: 1.45 GB
Как cкачать? Как скачать Одинокая женщина через торрент | qTorrent

28-11-2019 20:33  

Отключить всю рекламу на сайте

    Дорогой пользователь! Огромная просьба, поблагодарите релизера, оцените раздачу и оставьте свои комментарий, если Вы скачали Одинокая женщина через торрент бесплатно! Внесите свою лепту в развитие PiratBit!
    Комментировать посты могут только пользователи прошедшие не сложную регистрацию
    Показать сообщения:    

    Одинокая женщина через торрент
    Скачать бесплатно Одинокая женщина
    Одинокая женщина скачать торрент
    Одинокая женщина смотреть онлайн
    Cкачать фильм Одинокая женщина бесплатно
    Одинокая женщина скачать торрент в хорошем качестве
    Одинокая женщина смотреть онлайн бесплатно в хорошем качестве


    Вы не можете начинать темы
    Вы не можете отвечать на сообщения
    Вы не можете редактировать свои сообщения
    Вы не можете удалять свои сообщения
    Вы не можете голосовать в опросах
    Вы не можете прикреплять файлы к сообщениям
    Вы можете скачивать файлы