новый адрес
Мега распродажа FORZA HORIZON 4 ULTIMATE+ВСЕ DLC+ОНЛАЙН всего за 499р. 349 руб. (супер цена). Внимание количество ограничено!!!

iTunes

1+1

iTunes

мы

iTunes

1

iTunes

Чернобыль

iTunes

Ральф против интернета

Лицензия

ПШазам

Лицензия

Оно 2

Лицензия

30
pack

ВАЖНО

!!Акция!!

Alien_RageХит недели

RePack

Resident Evil 21

ИГРА 18+

pack

RePack

jed

!!Акция!!

Alien_Rage

RePack

fifa19

RePack

Assassins Creed: Odyssey

RePack

NEED FOR SPEED™ PAYBACK

3 сезон

9 сезон

Бесстыжие 9 сезон

Все сериалы

все сериалы на PB.wtf

RePack

FAR CRY 5
Ребята, катастрофически не хватает 1900р. для оплаты серверов за Октябрь (всвязи с блокировками трафик упал в 3 раза), 1-2р., выручайте.
  

Черемушки (Герберт Раппапорт) [1962, СССР, мюзикл, DVDRip от AVP Studio] pb.wtf

Черемушки через торрент pb.wtf

Размер: 745 MB | Добавлен: 8 мес. назад | Торрент скачан:2 раза
Скачать  

04-03-2019 07:44 Черемушки Скачать торрент  

Черемушки
Страна: СССР
Производство: Ленфильм

Жанр: мюзикл
Год выпуска: 1962
Продолжительность: 01:27:03

Перевод: Не требуется
Cубтитры: нет
Оригинальная аудиодорожка: русский

Режиссер: Герберт Раппапорт

В ролях:
Ольга Заботкина, Владимир Васильев, Марина Хатунцева, Геннадий Бортников, Светлана Живанкова, Владимир Земляникин, Василий Меркурьев, Марина Полбенцева, Евгений Леонов, Фёдор Никитин, Константин Сорокин, Рина Зелёная, Сергей Филиппов, Эмилия Трейвас, Михаил Пуговкин...
Об актёрах подробней

Описание:
По оперетте Дмитрия Шостаковича "Москва - Черёмушки".
Музыкальная комедия на вечно актуальную тему "жилищного вопроса". Молодой архитектор Лида Бабурова получила квартиру в новом районе Москвы и с отцом поехала смотреть новую жилплощадь. У них на глазах одна из стен квартиры рушится. Это начальник стройтреста, жилец новостройки, решил увеличить площадь своей квартиры, по прихоти своей молодой жены...
Вокальные партии исполнили: А.Александрович, А.Зильберт, Зоя Рогозикова, Т.Глинкина, Гренада Мнацаканова, Эдуард Хиль.

Источник: DVD5 R5
Качество видео: DVDRip
Формат видео: AVI

Видео: 640х480 (4:3), 23,976 fps, XviD ~ 994 kbps avg, 0.135 bit/pixel
Аудио: 48 kHz, Dolby Digital AC3 2.0, 192 kbps

Раздача от:
Общее
Полное имя : CHeremushki.1962.DVDRip_[New-team]_by_AVP_Studio.avi
Формат : AVI
Формат/Информация : Audio Video Interleave
Размер файла : 745 Мбайт
Продолжительность : 1 ч. 27 м.
Общий поток : 1196 Кбит/сек
Программа кодирования : VirtualDubMod 1.5.10.3 | www.virtualdub-fr.org || (build 2550/release)
Библиотека кодирования : VirtualDubMod build 2550/release

Видео
Идентификатор : 0
Формат : MPEG-4 Visual
Профиль формата : Advanced Simple@L5
Настройки формата : BVOP1 / Custom Matrix
Параметр BVOP формата : 1
Параметр QPel формата : Нет
Параметр GMC формата : Без точки перехода
Параметр матрицы формата : Выборочная
Идентификатор кодека : XVID
Идентификатор кодека/Подсказка : XviD
Продолжительность : 1 ч. 27 м.
Битрейт : 994 Кбит/сек
Ширина : 640 пикселей
Высота : 480 пикселей
Соотношение сторон : 4:3
Частота кадров : 23,976 (24000/1001) кадра/сек
Цветовое пространство : YUV
Субдискретизация насыщенности : 4:2:0
Битовая глубина : 8 бит
Тип развёртки : Прогрессивная
Метод сжатия : С потерями
Бит/(Пиксели*Кадры) : 0.135
Размер потока : 619 Мбайт (83%)
Библиотека кодирования : XviD 73

Аудио
Идентификатор : 1
Формат : AC-3
Формат/Информация : Audio Coding 3
Коммерческое название : Dolby Digital
Идентификатор кодека : 2000
Продолжительность : 1 ч. 27 м.
Вид битрейта : Постоянный
Битрейт : 192 Кбит/сек
Каналы : 2 канала
Channel layout : L R
Частота : 48,0 КГц
Частота кадров : 31,250 кадров/сек (1536 SPF)
Битовая глубина : 16 бит
Метод сжатия : С потерями
Размер потока : 120 Мбайт (16%)
Выравнивание : Разделение по промежуткам
Продолжительность промежутка : 42 мс. (1,00 видеокадр)
Время предзагрузки промежутка : 500 мс
pb.wtf



Скачать Черемушки через торрент http://picplus.ru/img/1903/02/c941e68c.png Скачать фильм Черемушки через торрент бесплантно в хорошем качестве Описание:По оперетте Дмитрия Шостаковича "Москва - Черёмушки".Музыкальная комедия на вечно актуальную тему "жилищного вопроса". Молодой ... 5 10 1
Торрент: Зарегистрирован [2019-03-04 07:44] · скачан: 2 раз
Статус: √ проверено
Размер: 745 MB
Как cкачать? Как скачать Черемушки через торрент | qTorrent

% Раздел Тема Автор DL S | L
Кино СССР [ 1.09 GB ] Черемушки [1962 СССР мюзикл DVDRip-AVC от AVP Studio] AVP Studio Скачать
1 | 0


>> Регистрируемся здесь <<






Отзывы и комментарии о схеме читаем и пишем здесь: ---> Отзывы и комментарии о схеме

Новые благодарочки в телеграм довольных пользователей:
скриншот   скриншот   скриншот   скриншот   скриншот
    Дорогой пользователь! Огромная просьба, поблагодарите релизера, оцените раздачу и оставьте свои комментарий, если Вы скачали Черемушки через торрент бесплатно! Внесите свою лепту в развитие PiratBit!
    Комментировать посты могут только пользователи прошедшие не сложную регистрацию
    Показать сообщения:    

    Черемушки через торрент
    Скачать бесплатно Черемушки
    Черемушки скачать торрент
    Черемушки смотреть онлайн
    Cкачать фильм Черемушки бесплатно
    Черемушки скачать торрент в хорошем качестве
    Черемушки смотреть онлайн бесплатно в хорошем качестве


    Вы не можете начинать темы
    Вы не можете отвечать на сообщения
    Вы не можете редактировать свои сообщения
    Вы не можете удалять свои сообщения
    Вы не можете голосовать в опросах
    Вы не можете прикреплять файлы к сообщениям
    Вы можете скачивать файлы