Ссылка на приватное зеркало нашего сайта всего за 1$. Внимание количество ограничено!!!

2 сезон

iTunes

1 сезон

1

iTunes

iTunes

iTunes

1 сезон

RePack

30

ИГРА 18+

pack

ВАЖНО

!!Акция!!

Alien_RageХит недели

RePack

MK11
pack

Забери бонус

RePack

jed

!!Акция!!

Alien_Rage

RePack

fifa19

RePack

Assassins Creed: Odyssey

RePack

NEED FOR SPEED™ PAYBACK

4 сезон

9 сезон

Бесстыжие 9 сезон

Все сериалы

все сериалы на PB.wtf

RePack

FAR CRY 5
  

Мылодрама / Сезон: 1 / Серии: 1-9 из 9 (Илья Куликов) [2019, Комедия, WEBRip 1080p] pb.wtf

Мылодрама через торрент pb.wtf

Раздают: 1 [ 0 KB/s ]
Размер: 24.07 GB | Добавлен: 1 год 7 мес. назад | Торрент скачан:299 раз
Скачать  

04-03-2019 08:54 Мылодрама Скачать торрент  

Мылодрама (без цензуры)

Год выпуска: 2019
Производство: Legio Felix
Жанр: комедия
Продолжительность: ~00:24:00 - серия
Субтитры: нет

Режиссёр: Илья Куликов

В ролях: Сергей Бурунов, Ростислав Бершауэр, Григорий Калинин, Юрий Грубник, Маруся Климова, Анна Котова, Кирилл Мелехов, Ольга Дибцева, Сергей Штатнов, Евгений Сармонт, Павел Мисаилов

Описание: Чтобы обрушить акции телеканала, совет директоров принимает решение посадить в кресло генерального директора автозаправщика-недотепу и доверить ему съемки сериала. В короткие сроки горе-начальнику удается создать хаос в эфире и установить свои порядки в медиабизнесе. Но неожиданно сериал, который по плану должен был стать величайшим провалом, начинает иметь грандиозный успех…


Сэмпл: https://yadi.sk/d/iehLdIYW6TPLnA

Качество: WEBRip
Формат: MP4
Видео кодек: H.264
Аудио кодек: AAC
Видео: MPEG4 AVC Video, H264, 16:9, 1920x1080, 25 fps, ~14023kbps, 0.271 bit/pixel
Аудио: AAC, 48.0 kHz, 2/0 (L,R) ch, 320kbps
Общее
Полное имя : D:\Videos\_HDTV\Мылодрама.s01e01.2019.без цензуры.1080p\Мылодрама.s01e01.2019.без цензуры.1080p.mp4
Формат : MPEG-4
Профиль формата : Base Media / Version 2
Идентификатор кодека : mp42 (mp42/isom)
Размер файла : 2,39 Гбайт
Продолжительность : 24 м. 27 с.
Режим общего битрейта : Переменный
Общий поток : 14,0 Мбит/сек
Дата кодирования : UTC 2019-03-03 20:19:31
Дата пометки : UTC 2019-03-03 20:19:31

Видео
Идентификатор : 2
Формат : AVC
Формат/Информация : Advanced Video Codec
Профиль формата : High@L4
Настройки формата : CABAC / 2 Ref Frames
Параметр CABAC формата : Да
Параметр RefFrames формата : 2 кадра
Параметр GOP формата : M=2, N=13
Идентификатор кодека : avc1
Идентификатор кодека/Информация : Advanced Video Coding
Продолжительность : 24 м. 27 с.
Вид битрейта : Переменный
Битрейт : 13,7 Мбит/сек
Максимальный битрейт : 15,0 Мбит/сек
Ширина : 1920 пикселей
Высота : 1080 пикселей
Соотношение сторон : 16:9
Режим частоты кадров : Постоянный
Частота кадров : 25,000 кадров/сек
Цветовое пространство : YUV
Субдискретизация насыщенности : 4:2:0
Битовая глубина : 8 бит
Тип развёртки : Прогрессивная
Бит/(Пиксели*Кадры) : 0.264
Размер потока : 2,34 Гбайт (98%)
Язык : English
Дата кодирования : UTC 2019-03-03 20:19:31
Дата пометки : UTC 2019-03-03 20:19:31
Codec configuration box : avcC

Аудио
Идентификатор : 1
Формат : AAC LC
Формат/Информация : Advanced Audio Codec Low Complexity
Идентификатор кодека : mp4a-40-2
Продолжительность : 24 м. 27 с.
Вид битрейта : Постоянный
Битрейт : 320 Кбит/сек
Каналы : 2 канала
Channel layout : L R
Частота : 48,0 КГц
Частота кадров : 46,875 кадров/сек (1024 SPF)
Метод сжатия : С потерями
Размер потока : 56,0 Мбайт (2%)
Язык : English
Дата кодирования : UTC 2019-03-03 20:19:31
Дата пометки : UTC 2019-03-03 20:19:31
скриншот  скриншот  скриншот  
Внимание! Раздача ведётся путём добавления новых серий; при каждом добавлении создаётся новый торрент. Чтобы начать докачку новой серии, пользователям необходимо сделать следующее:
(1) остановить скачивание,
(2) удалить старый торрент у себя из клиента (старые серии удалять не надо),
(3) скачать новый торрент и запустить его у себя в клиенте вместо старого, при этом указать клиенту путь в старую папку куда и должно происходить скачивание новых серий.

Ваш клиент при этом должен произвести хеширование (проверку) старой папки (если не производит сам - помогите ему сделать это), и будет докачивать только те серии которых у вас ещё нет. Старые серии при этом не удаляются, а продолжают раздаваться!

Eсли вы уже удалили старые серии, то предотвратить повторную закачку старых серий можно, отжав галочку в соответствующих местах при запуске нового торрента. По возможности, желательно не удалять старые серии как можно дольше чтобы релизёр не столько продолжал раздавать старые серии, а смог сконцентрироваться на новых.
pb.wtf



Скачать Мылодрама через торрент https://i109.fastpic.ru/big/2019/0226/da/43d3e4c468299070d8dd512664f0c0da.jpg Скачать фильм Мылодрама через торрент бесплантно в хорошем качестве Описание: Чтобы обрушить акции телеканала, совет директоров принимает решение посадить в кресло генерального директора ... 9.2 10 13
Info! Золотая раздача, скачанное не засчитывается.
Торрент: Зарегистрирован [2019-03-05 15:43] · скачан: 299 раз
Статус: √ проверено
Размер: 24.07 GB
Как cкачать? Как скачать Мылодрама через торрент | qTorrent

% Раздел Тема Автор DL S | L
Наши сериалы [ 5.47 GB ] Мыло / Сезон: 1 / Серии: 1-9 из 9 [2019 WEB-DLRip 720p] killermax2013 Скачать
6 | 1
Наши сериалы [ 2.61 GB ] Мыло / Сезон: 1 / Серии: 1-9 из 9 [2019 WEBRip] [Без цензуры] bober100 Скачать
6 | 1
Наши сериалы [ 7.52 GB ] Мыло / Сезон: 1 / Серии: 1-9 из 9 [2019 WEBRip 720p] [Без цензуры] bober100 Скачать
5 | 0
Наши сериалы [ 3.06 GB ] Мыло / Сезон: 1 / Серии: 1-9 из 9 [2019 WEBRip-AVC] bober100 Скачать
2 | 0
Наши сериалы [ 2.17 GB ] Мыло / Сезон: 1 / Серии: 1-9 из 9 [2019 WEBRip] killermax2013 Скачать
2 | 0
Наши сериалы [ 3.16 GB ] Мыло / Сезон: 1 / Серии: 1-9 из 9 [2019 SATRip] bober100 Скачать
1 | 1

28-11-2019 20:33  

Отключить всю рекламу на сайте

06-03-2019 10:08 Мылодрама Скачать торрент  

Будет в другом формате?pb.wtf



13-03-2019 22:10 Мылодрама Скачать торрент  

с цензуройpb.wtf



14-03-2019 20:41 Мылодрама Скачать торрент  

С цензурой... Только лишнее время потратил на закачкуpb.wtf



17-03-2019 18:19 Мылодрама Скачать торрент  

Сергей Бурунов конечно молодец. Но сложилось такое впечатление, что фильм не досняли. Не хватает завершения какого-то.pb.wtf



17-03-2019 18:25 Мылодрама Скачать торрент  

SR писал(а):

Не хватает завершения какого-то.

продолжение будетpb.wtf



    Дорогой пользователь! Огромная просьба, поблагодарите релизера, оцените раздачу и оставьте свои комментарий, если Вы скачали Мылодрама через торрент бесплатно! Внесите свою лепту в развитие PiratBit!
    Комментировать посты могут только пользователи прошедшие не сложную регистрацию
    Показать сообщения:    

    Мылодрама через торрент
    Скачать бесплатно Мылодрама
    Мылодрама скачать торрент
    Мылодрама смотреть онлайн
    Cкачать фильм Мылодрама бесплатно
    Мылодрама скачать торрент в хорошем качестве
    Мылодрама смотреть онлайн бесплатно в хорошем качестве


    Вы не можете начинать темы
    Вы не можете отвечать на сообщения
    Вы не можете редактировать свои сообщения
    Вы не можете удалять свои сообщения
    Вы не можете голосовать в опросах
    Вы не можете прикреплять файлы к сообщениям
    Вы можете скачивать файлы