новый адрес
Ссылка на приватное зеркало всего за 1$. Внимание количество ограничено!!!

iTunes

1+1

iTunes

мы

iTunes

1

iTunes

Чернобыль

iTunes

Ральф против интернета

Лицензия

ПШазам

Лицензия

Оно 2

Лицензия

30
pack

Вам бонус

ВАЖНО

!!Акция!!

Alien_RageХит недели

RePack

Resident Evil 21

ИГРА 18+

pack

RePack

jed

!!Акция!!

Alien_Rage

RePack

fifa19

RePack

Assassins Creed: Odyssey

RePack

NEED FOR SPEED™ PAYBACK

3 сезон

9 сезон

Бесстыжие 9 сезон

Все сериалы

все сериалы на PB.wtf

RePack

FAR CRY 5
Ребята, катастрофически не хватает 1900р. для оплаты серверов за Октябрь (всвязи с блокировками трафик упал в 3 раза), 1-2р., выручайте.
  

Ужастики 2: Беспокойный Хэллоуин / Goosebumps 2: Haunted Halloween (Эри Сандел) [2018, ужасы, фэнтези, комедия, приключения, семейный, BDRip-AVC] DUB (ukr) [iTunes] +DUB [Лицензия] pb.wtf

Ужастики 2: Беспокойный Хэллоуин через торрент pb.wtf

Раздают: 1 [ 0 KB/s ]
Размер: 1.84 GB | Добавлен: 9 мес. назад | Торрент скачан:30 раз
Скачать  

04-03-2019 17:13 Ужастики 2: Беспокойный Хэллоуин Скачать торрент  

Ужастики 2: Беспокойный Хэллоуин / Goosebumps 2: Haunted Halloween Год выпуска: 2018
Страна: США
Жанр: ужасы, фэнтези, комедия, приключения, семейный
Продолжительность: 01:29:48
Перевод: Дублированный | Лицензия
Субтитры: Русские (форс., полные), Украинские (полные), Английские (полные)

Режиссер: Эри Сандел

rating

В ролях:

Венди МакЛендон-Кови, Мэдисон Айсмен, Джереми Рэй Тейлор, Калил Харрис, Кен Жонг, Крис Парнелл, Брайс Касс, Пейтон Уич, Шэри Хидли, Кристиан Финлейсон

Описание:

В заброшенном доме парочка ребят находит странную книгу «Беспокойный Хэллоуин» Р. Л. Стайна. Друзья быстро понимают, почему книгу спрятали подальше от всех, когда небольшой городок заполняют монстры разной степени ужасности.

Качество: BDRip-AVC
Формат: MKV

Видео: 1024x428 (2.40:1), 23,976 fps, x264 ~1 873 kbps avg, 0.178 bit/pixel
Аудио#1: 48 kHz, AC3 Dolby Digital, 3/2 (L,C,R,l,r) + LFE ch, ~448.00 kbps avg | RUS (Лицензия)
Аудио#2: 48 kHz, AC3 Dolby Digital, 2 (L,R) ch, ~160.00 kbps avg | UKR (iTunes)
Аудио#3: 48 kHz, AC3 Dolby Digital, 3/2 (L,C,R,l,r) + LFE ch, ~384.00 kbps avg | ENG
скриншот  скриншот  скриншот  скриншот  скриншот  

Общее
Уникальный идентификатор : 330681527447458590296508884917469077046 (0xF8C6F2115027A17CFB4832D263AC5E36)
Полное имя : F:OlLanDGroupGoosebumps.2.Haunted.Halloween.2018.BDRip(AVC).OlLanDGroup.mkv
Формат : Matroska
Версия формата : Version 4 / Version 2
Размер файла : 1,84 Гбайт
Продолжительность : 1 ч. 29 м.
Общий поток : 2932 Кбит/сек
Название фильма : Goosebumps 2: Haunted Halloween (2018) #TorpedoUK#
Дата кодирования : UTC 2019-03-04 16:47:41
Программа кодирования : mkvmerge v29.0.0 ('Like It Or Not') 64-bit
Библиотека кодирования : libebml v1.3.6 + libmatroska v1.4.9

Видео
Идентификатор : 1
Формат : AVC
Формат/Информация : Advanced Video Codec
Профиль формата : High@L4.1
Параметр CABAC формата : Да
Параметр ReFrames формата : 10 кадров
Идентификатор кодека : V_MPEG4/ISO/AVC
Продолжительность : 1 ч. 29 м.
Битрейт : 1873 Кбит/сек
Ширина : 1024 пикселя
Высота : 428 пикселей
Соотношение сторон : 2,40:1
Режим частоты кадров : Постоянный
Частота кадров : 23,976 (24000/1001) кадра/сек
Цветовое пространство : YUV
Субдискретизация насыщенности : 4:2:0
Битовая глубина : 8 бит
Тип развёртки : Прогрессивная
Бит/(Пиксели*Кадры) : 0.178
Размер потока : 1,17 Гбайт (64%)
Библиотека кодирования : x264 core 146 r2538 121396c
Настройки программы : cabac=1 / ref=10 / deblock=1:-3:-3 / analyse=0x3:0x113 / me=umh / subme=11 / psy=1 / psy_rd=1.00:0.03 / mixed_ref=1 / me_range=48 / chroma_me=1 / trellis=2 / 8x8dct=1 / cqm=0 / deadzone=21,11 / fast_pskip=1 / chroma_qp_offset=-3 / threads=6 / lookahead_threads=1 / sliced_threads=0 / nr=0 / decimate=1 / interlaced=0 / bluray_compat=0 / constrained_intra=0 / bframes=11 / b_pyramid=2 / b_adapt=2 / b_bias=0 / direct=3 / weightb=1 / open_gop=0 / weightp=2 / keyint=240 / keyint_min=23 / scenecut=40 / intra_refresh=0 / rc_lookahead=40 / rc=2pass / mbtree=0 / bitrate=1873 / ratetol=1.0 / qcomp=0.60 / qpmin=0 / qpmax=69 / qpstep=4 / cplxblur=20.0 / qblur=0.5 / vbv_maxrate=50000 / vbv_bufsize=62500 / nal_hrd=none / filler=0 / ip_ratio=1.40 / pb_ratio=1.30 / aq=1:1.00
Язык : English
Default : Да
Forced : Нет

Аудио #1
Идентификатор : 2
Формат : AC-3
Формат/Информация : Audio Coding 3
Расширение режима : CM (complete main)
Параметр Endianness формата : Big
Идентификатор кодека : A_AC3
Продолжительность : 1 ч. 29 м.
Вид битрейта : Постоянный
Битрейт : 448 Кбит/сек
Каналы : 6 каналов
Расположение каналов : Front: L C R, Side: L R, LFE
Частота : 48,0 КГц
Частота кадров : 31,250 кадров/сек (1536 spf)
Битовая глубина : 16 бит
Метод сжатия : С потерями
Размер потока : 288 Мбайт (15%)
Заголовок : DUB [License]
Язык : Russian
Default : Да
Forced : Нет

Аудио #2
Идентификатор : 3
Формат : AC-3
Формат/Информация : Audio Coding 3
Расширение режима : CM (complete main)
Параметр Endianness формата : Big
Идентификатор кодека : A_AC3
Продолжительность : 1 ч. 29 м.
Вид битрейта : Постоянный
Битрейт : 160 Кбит/сек
Каналы : 2 канала
Расположение каналов : Front: L R
Частота : 48,0 КГц
Частота кадров : 31,250 кадров/сек (1536 spf)
Битовая глубина : 16 бит
Метод сжатия : С потерями
Размер потока : 103 Мбайт (5%)
Заголовок : DUB [iTunes]
Язык : Ukrainian
Default : Нет
Forced : Нет

Аудио #3
Идентификатор : 4
Формат : AC-3
Формат/Информация : Audio Coding 3
Расширение режима : CM (complete main)
Параметр Endianness формата : Big
Идентификатор кодека : A_AC3
Продолжительность : 1 ч. 29 м.
Вид битрейта : Постоянный
Битрейт : 448 Кбит/сек
Каналы : 6 каналов
Расположение каналов : Front: L C R, Side: L R, LFE
Частота : 48,0 КГц
Частота кадров : 31,250 кадров/сек (1536 spf)
Битовая глубина : 16 бит
Метод сжатия : С потерями
Размер потока : 288 Мбайт (15%)
Заголовок : [Original]
Язык : English
Default : Нет
Forced : Нет

Текст #1
Идентификатор : 5
Формат : UTF-8
Идентификатор кодека : S_TEXT/UTF8
Идентификатор кодека/Информация : UTF-8 Plain Text
Продолжительность : 1 ч. 1 м.
Битрейт : 0 бит/сек
Count of elements : 3
Размер потока : 105 байт (0%)
Заголовок : Forced
Язык : Russian
Default : Да
Forced : Нет

Текст #2
Идентификатор : 6
Формат : UTF-8
Идентификатор кодека : S_TEXT/UTF8
Идентификатор кодека/Информация : UTF-8 Plain Text
Продолжительность : 1 ч. 28 м.
Битрейт : 80 бит/сек
Count of elements : 1122
Размер потока : 52,0 Кбайт (0%)
Заголовок : Full
Язык : Russian
Default : Нет
Forced : Нет

Текст #3
Идентификатор : 7
Формат : UTF-8
Идентификатор кодека : S_TEXT/UTF8
Идентификатор кодека/Информация : UTF-8 Plain Text
Продолжительность : 1 ч. 28 м.
Битрейт : 78 бит/сек
Count of elements : 1125
Размер потока : 50,7 Кбайт (0%)
Заголовок : Full
Язык : Ukrainian
Default : Нет
Forced : Нет

Текст #4
Идентификатор : 8
Формат : UTF-8
Идентификатор кодека : S_TEXT/UTF8
Идентификатор кодека/Информация : UTF-8 Plain Text
Продолжительность : 1 ч. 27 м.
Битрейт : 59 бит/сек
Count of elements : 1277
Размер потока : 38,0 Кбайт (0%)
Заголовок : Full
Язык : English
Default : Нет
Forced : Нет

Меню
00:00:00.000 : en:1
00:04:32.439 : en:2
00:11:15.174 : en:3
00:18:42.913 : en:4
00:21:40.632 : en:5
00:27:22.348 : en:6
00:32:36.119 : en:7
00:37:47.430 : en:8
00:45:13.917 : en:9
00:50:10.712 : en:10
00:56:16.702 : en:11
01:00:34.750 : en:12
01:05:27.125 : en:13
01:09:24.110 : en:14
01:14:36.921 : en:15
01:20:28.314 : en:16

pb.wtf



Скачать Ужастики 2: Беспокойный Хэллоуин через торрент https://i107.fastpic.ru/big/2019/0107/fe/1a61f6f234d8e7a9712cf842b7b15dfe.jpg Скачать фильм Ужастики 2: Беспокойный Хэллоуин через торрент бесплантно в хорошем качестве Описание: В заброшенном доме парочка ребят находит странную книгу «Беспокойный Хэллоуин» Р. Л. Стайна. Друзья быстро понимают, почему книгу ... 10 10 3
Торрент: Зарегистрирован [2019-03-04 17:13] · скачан: 30 раз
Статус: √ проверено
Размер: 1.84 GB
Как cкачать? Как скачать Ужастики 2: Беспокойный Хэллоуин через торрент | qTorrent

% Раздел Тема Автор DL S | L
Ultra HD (UHD: 2K, 4K, 8K) — видео сверхвысокой чёткости [ 52.4 GB ] Ужастики 2: Беспокойный Хэллоуин / Goosebumps 2: Haunted Halloween [2018 UHD Blu-ray EUR 2160p] DUB [] bober100 Скачать
1 | 0
Фильмы 2018 [DVDrip, WEB-DLRip, HDrip] (DUB, MVO) [ 749 MB ] Ужастики 2: Беспокойный Хэллоуин / Goosebumps 2: Haunted Halloween [2018 HDRip] DUB [] bober100 Скачать
1 | 0
Фильмы 2018 [DVDrip, WEB-DLRip, HDrip] (DUB, MVO) [ 1.46 GB ] Ужастики 2: Беспокойный Хэллоуин / Goosebumps 2: Haunted Halloween [2018 BDRip] DUB [ BD EUR] bober100 Скачать
1 | 0
Ultra HD (UHD: 2K, 4K, 8K) — видео сверхвысокой чёткости [ 43.93 GB ] Ужастики 2: Беспокойный Хэллоуин / Goosebumps 2: Haunted Halloween [2018 UHD BDRemux 2160p] DUB [] bober100 Скачать
1 | 0
Фильмы (Blu-ray, BD-Remux, HDDVD) [ 17.36 GB ] Ужастики 2: Беспокойный Хэллоуин / Goosebumps 2: Haunted Halloween [2018 BD Remux 1080p] DUB [] bober100 Скачать
1 | 0
Фильмы [HD 720p, 1080p] (Хороший звук DUB, MVO) [ 4.27 GB ] Ужастики 2: Беспокойный Хэллоуин / Goosebumps 2: Haunted Halloween [2018 BDRip 720p] DUB [] bober100 Скачать
1 | 0
Фильмы [HD 720p, 1080p] (Хороший звук DUB, MVO) [ 7.78 GB ] Ужастики 2: Беспокойный Хэллоуин / Goosebumps 2: Haunted Halloween [2018 BDRip 1080p] DUB [] bober100 Скачать
1 | 0
Отключить всю рекламу на сайте

    Дорогой пользователь! Огромная просьба, поблагодарите релизера, оцените раздачу и оставьте свои комментарий, если Вы скачали Ужастики 2: Беспокойный Хэллоуин через торрент бесплатно! Внесите свою лепту в развитие PiratBit!
    Комментировать посты могут только пользователи прошедшие не сложную регистрацию
    Показать сообщения:    

    Ужастики 2: Беспокойный Хэллоуин через торрент
    Скачать бесплатно Ужастики 2: Беспокойный Хэллоуин
    Ужастики 2: Беспокойный Хэллоуин скачать торрент
    Ужастики 2: Беспокойный Хэллоуин смотреть онлайн
    Cкачать фильм Ужастики 2: Беспокойный Хэллоуин бесплатно
    Ужастики 2: Беспокойный Хэллоуин скачать торрент в хорошем качестве
    Ужастики 2: Беспокойный Хэллоуин смотреть онлайн бесплатно в хорошем качестве


    Вы не можете начинать темы
    Вы не можете отвечать на сообщения
    Вы не можете редактировать свои сообщения
    Вы не можете удалять свои сообщения
    Вы не можете голосовать в опросах
    Вы не можете прикреплять файлы к сообщениям
    Вы можете скачивать файлы