Ссылка на приватное зеркало нашего сайта всего за 1$. Внимание количество ограничено!!!

2 сезон

iTunes

1 сезон

1

2 сезон

2 сезон

iTunes

1 сезон

RePack

30

Ultimate

ВАЖНО

ИГРА 18+

pack

RePack

MK11
pack

Забери бонус

RePack

jed

!!Акция!!

Alien_Rage

RePack

fifa19

RePack

Assassins Creed: Odyssey

RePack

NEED FOR SPEED™ PAYBACK

4 сезон

9 сезон

Бесстыжие 9 сезон

Все сериалы

все сериалы на PB.wtf

RePack

FAR CRY 5
  

Чужестранка / Outlander / Сезон: 4 / Серии: 1-13 из 13 (Ричард Кларк, Анна Ферстер, Джон Дал) [2018, Фэнтези, драма, мелодрама, WEB-DLRip] MVO [NewStudio] pb.wtf

Чужестранка через торрент pb.wtf

Размер: 9.25 GB | Добавлен: 1 год 8 мес. назад | Торрент скачан:56 раз
Скачать  

04-03-2019 18:51 Чужестранка Скачать торрент  

Чужестранка | Outlander Год выпуска: 2018
Страна: Великобритания, США
Жанр: Фэнтези, драма, мелодрама
Продолжительность: ~ 00:55:00
Перевод: Профессиональный (многоголосый закадровый) | NewStudio
Субтитры: Русские (форсированные)

Режиссёр: Ричард Кларк, Анна Ферстер, Джон Дал

В ролях:

Катрина Балф, Сэм Юэн, Тобиаш Мензес, Гари Льюис, Грэм Мактавиш, Лотта Вербек, Дункан Лакруа, Грант О’Рурк, Стивен Уолтерс

Описание:

В центре сюжета Клэр Бичем Рэндалл, служившая медсестрой в действующей армии во время Второй мировой войны. По непонятным причинам молодая женщина перемещается из 1945 года в 1743 год. Там назревает гражданская война, и Клэр встречает раненого шотландца Джейми Фрейзера. Теперь ей нужно научиться жить в новом мире по новым правилам.



Качество: WEB-DLRip
Формат: AVI

Видео: XviD, 720x400 (16:9), 23,976 кадров/сек, ~1500 Кбит/сек
Аудио Rus: MP3, 48 kHz, 2 ch, 128 Кбит/сек | NewStudio
Аудио Eng: MP3, 48 kHz, 2 ch, 128 Кбит/сек


Реклама: Отсутствует
Рип: DriverV
01. Америка прекрасная / America the Beautiful
02. Не навреди / Do No Harm
03. Притворная невеста / The False Bride
04. Нечто общее / Common Ground
05. Дикари / Savages
06. Кровь от моей крови / Blood of My Blood
07. Не оглядываясь / Down the Rabbit Hole
08. Уилмингтон / Wilmington
09. Пестики и тычинки / The Birds & The Bees
10. В глубине сердца / The Deep Heart's Core
11. Если бы не надежда / If Not For Hope
12. Провидение / Providence
13. Достойный человек / Man Of Worth
Общее
Полное имя : D:\Чужестранка (сезон 4) Outlander (2018) WEB-DLRip - NewStudio\Outlander.S04E01.WEB-DLRip.Rus.Eng.DV.NewStudio.avi
Формат : AVI
Формат/Информация : Audio Video Interleave
Размер файла : 789 Мбайт
Продолжительность : 1 ч. 2 м.
Общий поток : 1767 Кбит/сек
Название фильма : Outlander.S04E01.WEB-DLRip.Rus.Eng.DV.NewStudio / NNM-Club
Программа кодирования : VirtualDubModRus 1.5.10.2 (build 2542/release)
Библиотека кодирования : VirtualDubMod build 2542/release

Видео
Идентификатор : 0
Формат : MPEG-4 Visual
Профиль формата : Advanced Simple@L5
Настройки формата : BVOP2
Параметр BVOP формата : 2
Параметр QPel формата : Нет
Параметр GMC формата : Без точки перехода
Параметр матрицы формата : Default (H.263)
Идентификатор кодека : XVID
Идентификатор кодека/Подсказка : XviD
Продолжительность : 1 ч. 2 м.
Битрейт : 1497 Кбит/сек
Ширина : 720 пикселей
Высота : 400 пикселей
Соотношение сторон : 16:9
Частота кадров : 23,976 (24000/1001) кадра/сек
Цветовое пространство : YUV
Субдискретизация насыщенности : 4:2:0
Битовая глубина : 8 бит
Тип развёртки : Прогрессивная
Метод сжатия : С потерями
Бит/(Пиксели*Кадры) : 0.217
Размер потока : 669 Мбайт (85%)
Заголовок : Rip by DriverV / NNM-Club
Библиотека кодирования : XviD 67

Аудио #1
Идентификатор : 1
Формат : MPEG Audio
Версия формата : Version 1
Профиль формата : Layer 3
Настройки формата : Joint stereo / MS Stereo
Идентификатор кодека : 55
Идентификатор кодека/Подсказка : MP3
Продолжительность : 1 ч. 2 м.
Вид битрейта : Постоянный
Битрейт : 128 Кбит/сек
Каналы : 2 канала
Частота : 48,0 КГц
Метод сжатия : С потерями
Размер потока : 57,2 Мбайт (7%)
Выравнивание : Соединение по промежуткам
Продолжительность промежутка : 42 мс. (1,00 видеокадр)
Время предзагрузки промежутка : 504 мс.

Аудио #2
Идентификатор : 2
Формат : MPEG Audio
Версия формата : Version 1
Профиль формата : Layer 3
Настройки формата : Joint stereo / MS Stereo
Идентификатор кодека : 55
Идентификатор кодека/Подсказка : MP3
Продолжительность : 1 ч. 2 м.
Вид битрейта : Постоянный
Битрейт : 128 Кбит/сек
Каналы : 2 канала
Частота : 48,0 КГц
Метод сжатия : С потерями
Размер потока : 57,2 Мбайт (7%)
Выравнивание : Соединение по промежуткам
Продолжительность промежутка : 42 мс. (1,00 видеокадр)
Время предзагрузки промежутка : 504 мс.
скриншот  скриншот  скриншот  скриншот  
Внимание! Раздача ведётся путём добавления новых серий; при каждом добавлении создаётся новый торрент. Чтобы начать докачку новой серии, пользователям необходимо сделать следующее:
(1) остановить скачивание,
(2) удалить старый торрент у себя из клиента (старые серии удалять не надо),
(3) скачать новый торрент и запустить его у себя в клиенте вместо старого, при этом указать клиенту путь в старую папку куда и должно происходить скачивание новых серий.

Ваш клиент при этом должен произвести хеширование (проверку) старой папки (если не производит сам - помогите ему сделать это), и будет докачивать только те серии которых у вас ещё нет. Старые серии при этом не удаляются, а продолжают раздаваться!

Eсли вы уже удалили старые серии, то предотвратить повторную закачку старых серий можно, отжав галочку в соответствующих местах при запуске нового торрента. По возможности, желательно не удалять старые серии как можно дольше чтобы релизёр не столько продолжал раздавать старые серии, а смог сконцентрироваться на новых.
pb.wtf



Скачать Чужестранка через торрент http://linkme.ufanet.ru/box/400x500/b26a6eb55baff82b30504b2163629128.png Скачать фильм Чужестранка через торрент бесплантно в хорошем качестве Описание: В центре сюжета Клэр Бичем Рэндалл, служившая медсестрой в действующей армии во время Второй мировой войны. По непонятным ... 10 10 3
Торрент: Зарегистрирован [2019-03-04 18:51] · скачан: 56 раз
Статус: √ проверено
Размер: 9.25 GB
Как cкачать? Как скачать Чужестранка через торрент | qTorrent

% Раздел Тема Автор DL S | L
Зарубежные сериалы [ 55.73 GB ] Чужестранка / Outlander / Сезон: 4 / Серии: 1-13 из 13 [2018 WEBRip 1080p] MVO [TVShows] bober100 Скачать
1 | 0
Зарубежные сериалы [ 25.77 GB ] Чужестранка / Outlander / Сезон: 4 / Серии: 1-13 из 13 [2018 WEB-DL 720p] MVO [Jaskie] bober100 Скачать
1 | 0
Зарубежные сериалы [ 10.6 GB ] Чужестранка / Outlander / Сезон: 4 / Серии: 1-13 из 13 [2018 WEB-DLRip] MVO [Jaskier] bober100 Скачать
1 | 0
Зарубежные сериалы [ 55.73 GB ] Чужестранка / Outlander / Сезон: 4 / Серии: 1-13 из 13 [2018 WEBRip 1080p] MVO [NewStudio] bober100 Скачать
1 | 0
Зарубежные сериалы [ 8.55 GB ] Чужестранка / Outlander / Сезон: 4 / Серии 1-13 из 13 [2018 WEBRip] MVO [BaibaKo] GEKADOL Скачать
1 | 1

28-11-2019 20:33  

Отключить всю рекламу на сайте

    Дорогой пользователь! Огромная просьба, поблагодарите релизера, оцените раздачу и оставьте свои комментарий, если Вы скачали Чужестранка через торрент бесплатно! Внесите свою лепту в развитие PiratBit!
    Комментировать посты могут только пользователи прошедшие не сложную регистрацию
    Показать сообщения:    

    Чужестранка через торрент
    Скачать бесплатно Чужестранка
    Чужестранка скачать торрент
    Чужестранка смотреть онлайн
    Cкачать фильм Чужестранка бесплатно
    Чужестранка скачать торрент в хорошем качестве
    Чужестранка смотреть онлайн бесплатно в хорошем качестве


    Вы не можете начинать темы
    Вы не можете отвечать на сообщения
    Вы не можете редактировать свои сообщения
    Вы не можете удалять свои сообщения
    Вы не можете голосовать в опросах
    Вы не можете прикреплять файлы к сообщениям
    Вы можете скачивать файлы