Ссылка на приватное зеркало нашего сайта всего за 1$. Внимание количество ограничено!!!

2 сезон

iTunes

1 сезон

1

iTunes

iTunes

iTunes

1 сезон

RePack

30

ИГРА 18+

pack

ВАЖНО

!!Акция!!

Alien_RageХит недели

RePack

MK11
pack

Забери бонус

RePack

jed

!!Акция!!

Alien_Rage

RePack

fifa19

RePack

Assassins Creed: Odyssey

RePack

NEED FOR SPEED™ PAYBACK

4 сезон

9 сезон

Бесстыжие 9 сезон

Все сериалы

все сериалы на PB.wtf

RePack

FAR CRY 5
  

Чернов / Сезон: 1 / Серии: 1-12 из 12 (Сергей Бобров (II) [2019, Детектив, криминал, мистика, фантастика, триллер, WEBRip-AVC] pb.wtf

Чернов через торрент pb.wtf

Размер: 8.72 GB | Добавлен: 1 год 7 мес. назад | Торрент скачан:68 раз
Скачать  

04-03-2019 20:54 Чернов Скачать торрент  

Чернов Год выпуска: 2019
Страна: Россия
Жанр: Детектив, криминал, мистика, фантастика, триллер
Продолжительность: ~ 00:47:00
Субтитры: отсутствуют

Режиссер: Сергей Бобров (II)



В ролях:

Виктор Логинов, Эмилия Спивак, Анна Арланова, Валентина Ляпина, Александр Поликарпов, Сергей Губанов, Максим Линников, Александр Синюков, Карина Губанова, Александр Дзюба (II), Евгений Смирнов-Иваницкий, Ислам Зафесов, Елена Соловьева (II), Александр Коновалов, Анна Карышева

Описание:

В свой день рождения капитан полиции Чернов приезжает на службу и получает сообщение, что после его ухода к нему в дом ворвались бандиты и тяжело ранили его жену Людмилу. Врачи спасают Людмилу, но она остается в коме. Чернов горюет, но внезапно Людмила выходит на связь с Черновым из потустороннего мира. Она подсказывает ему, как найти и наказать ее обидчиков.С этого момента Чернов регулярно получает сообщения от Людмилы. Иногда она появляется перед ним в телевизоре, на картине или просто в воздухе. Иногда он словно переносится в тот день, когда Людмилу хотели убить – раз за разом Чернов переживает те минуты, когда он последний раз видел Людмилу в сознании. И каждая такая встреча несет в себе ключ к раскрытию очередного дела, расследуемого Черновым. И только размотав клубок из казалось бы несвязанных между собой преступлений, Чернов сможет понять, что случилось в роковой день, и изменить свое прошлое, а значит, и будущее.

Качество: WEBRip-AVC
Формат: MKV

Видео: MPEG-4 AVC, ~ 2000 Кбит/с, 1024x576, 25 кадр/с
Аудио: AC3, 2 ch, 192 Кбит/с
скриншот  скриншот  скриншот  скриншот  скриншот  

Общее
Уникальный идентификатор : 249018883098165205773681055131317171480 (0xBB574AD89B6B15BC850D54ACA2B1F518)
Полное имя : D:\Chernov.(2018).WEBRip.(AVC).Files-x\01.Chernov.(2018).WEBRip.(AVC).by.Серый1779.Files-x.mkv
Формат : Matroska
Версия формата : Version 2
Размер файла : 619 Мбайт
Продолжительность : 39 м. 27 с.
Общий поток : 2193 Кбит/сек
Дата кодирования : UTC 2019-03-04 19:48:07
Программа кодирования : mkvmerge v7.8.0 ('River Man') 32bit built on Apr 3 2015 12:11:22
Библиотека кодирования : libebml v1.3.1 + libmatroska v1.4.2

Видео
Идентификатор : 1
Формат : AVC
Формат/Информация : Advanced Video Codec
Профиль формата : High@L4.1
Параметр CABAC формата : Да
Параметр RefFrames формата : 9 кадров
Идентификатор кодека : V_MPEG4/ISO/AVC
Продолжительность : 39 м. 27 с.
Битрейт : 2000 Кбит/сек
Ширина : 1024 пикселя
Высота : 576 пикселей
Соотношение сторон : 16:9
Режим частоты кадров : Постоянный
Частота кадров : 25,000 кадров/сек
Цветовое пространство : YUV
Субдискретизация насыщенности : 4:2:0
Битовая глубина : 8 бит
Тип развёртки : Прогрессивная
Бит/(Пиксели*Кадры) : 0.136
Размер потока : 552 Мбайт (89%)
Библиотека кодирования : x264 core 146 r2538 121396c
Настройки программы : cabac=1 / ref=9 / deblock=1:-2:-1 / analyse=0x3:0x133 / me=umh / subme=9 / psy=1 / psy_rd=1.00:0.15 / mixed_ref=1 / me_range=32 / chroma_me=1 / trellis=2 / 8x8dct=1 / cqm=0 / deadzone=21,11 / fast_pskip=0 / chroma_qp_offset=-3 / threads=18 / lookahead_threads=3 / sliced_threads=0 / nr=0 / decimate=1 / interlaced=0 / bluray_compat=0 / constrained_intra=0 / bframes=9 / b_pyramid=2 / b_adapt=2 / b_bias=0 / direct=1 / weightb=1 / open_gop=0 / weightp=2 / keyint=250 / keyint_min=25 / scenecut=40 / intra_refresh=0 / rc=2pass / mbtree=0 / bitrate=2000 / ratetol=1.0 / qcomp=0.60 / qpmin=0 / qpmax=69 / qpstep=4 / cplxblur=20.0 / qblur=0.5 / ip_ratio=1.40 / pb_ratio=1.30 / aq=2:1.00
Default : Да
Forced : Нет
Цветовой диапазон : Limited
Основные цвета : BT.709
Характеристики трансфера : BT.709
Коэффициенты матрицы : BT.709

Аудио
Идентификатор : 2
Формат : AC-3
Формат/Информация : Audio Coding 3
Расширение режима : CM (complete main)
Параметр Endianness формата : Big
Идентификатор кодека : A_AC3
Продолжительность : 39 м. 27 с.
Вид битрейта : Постоянный
Битрейт : 192 Кбит/сек
Каналы : 2 канала
Расположение каналов : Front: L R
Частота : 48,0 КГц
Частота кадров : 31,250 кадров/сек (1536 spf)
Метод сжатия : С потерями
Размер потока : 54,2 Мбайт (9%)
Default : Да
Forced : Нет

Внимание! Раздача ведётся путём добавления новых серий; при каждом добавлении создаётся новый торрент. Чтобы начать докачку новой серии, пользователям необходимо сделать следующее:
(1) остановить скачивание,
(2) удалить старый торрент у себя из клиента (старые серии удалять не надо),
(3) скачать новый торрент и запустить его у себя в клиенте вместо старого, при этом указать клиенту путь в старую папку куда и должно происходить скачивание новых серий.
Ваш клиент при этом должен произвести хеширование (проверку) старой папки (если не производит сам - помогите ему сделать это), и будет докачивать только те серии которых у вас ещё нет. Старые серии при этом не удаляются, а продолжают раздаваться!
Eсли вы уже удалили старые серии, то предотвратить повторную закачку старых серий можно, отжав галочку в соответствующих местах при запуске нового торрента. По возможности, желательно не удалять старые серии как можно дольше чтобы релизёр не столько продолжал раздавать старые серии, а смог сконцентрироваться на новых.
pb.wtf



Скачать Чернов через торрент http://img10.lostpic.net/2019/03/04/ddf767eaf2f1ce8125812cf501e9d0ef.jpg Скачать фильм Чернов через торрент бесплантно в хорошем качестве Описание: В свой день рождения капитан полиции Чернов приезжает на службу и получает сообщение, что после его ухода к нему в дом ворвались ... 10 10 4
Торрент: Зарегистрирован [2019-03-08 09:41] · скачан: 68 раз
Статус: √ проверено
Размер: 8.72 GB
Как cкачать? Как скачать Чернов через торрент | qTorrent

% Раздел Тема Автор DL S | L
Наши сериалы [ 24.5 GB ] Чернов / Сезон: 1 / Серии: 1-12 из 12 [2019 WEB-DL 1080p] bober100 Скачать
1 | 0
Наши сериалы [ 7.16 GB ] Чернов / Сезон: 1 / Серии: 1-12 из 12 [2019 WEB-DLRip] bober100 Скачать
1 | 0
Наши сериалы [ 16.68 GB ] Чернов / Сезон: 1 / Серии: 1-12 из 12 [2019 WEB-DL 720p] bober100 Скачать
1 | 0
Наши сериалы [ 7.03 GB ] Чернов / Сезон: 1 / Серии: 1-12 из 12 [2019 SATRip] bober100 Скачать
1 | 0
Зарубежные сериалы [ 7.59 GB ] Линч / Послание из гроба / Тёмный ангел / Lynch / 1 сезон / 1-13 серии из 13 [2012 чёрная HDTVRip] MVO [Домашний] bober100 Скачать
1 | 0
T Релизы по Парсеру [Игры, Сериалы и Фильмы и другое...] [ 9.69 GB ] Металлопокалипсис / Metalocalypse / Сезон: 1-4 / Серии: 1-60 из 60 [2006-2012 Чёрная DVDRip-AVC] MVO + SUB Ворон Скачать
1 | 0
Мультсериалы [ 2.27 GB ] Бриклберри / Brickleberry / Сезон: 1 / Серии: 1-10 из 10/ [2012 черный юмор WEB-DLRip] DVO 0xiDESK Скачать
2 | 2


Последний раз редактировалось: bober100 (2019-03-08 09:41), всего редактировалось 2 раз(а)

28-11-2019 20:33  

Отключить всю рекламу на сайте

05-03-2019 14:43 Чернов Скачать торрент  

Начало интригующее. Посмотрим что будет дальше.pb.wtf



    Дорогой пользователь! Огромная просьба, поблагодарите релизера, оцените раздачу и оставьте свои комментарий, если Вы скачали Чернов через торрент бесплатно! Внесите свою лепту в развитие PiratBit!
    Комментировать посты могут только пользователи прошедшие не сложную регистрацию
    Показать сообщения:    

    Чернов через торрент
    Скачать бесплатно Чернов
    Чернов скачать торрент
    Чернов смотреть онлайн
    Cкачать фильм Чернов бесплатно
    Чернов скачать торрент в хорошем качестве
    Чернов смотреть онлайн бесплатно в хорошем качестве


    Вы не можете начинать темы
    Вы не можете отвечать на сообщения
    Вы не можете редактировать свои сообщения
    Вы не можете удалять свои сообщения
    Вы не можете голосовать в опросах
    Вы не можете прикреплять файлы к сообщениям
    Вы можете скачивать файлы