Ссылка на приватное зеркало нашего сайта всего за 1$. Внимание количество ограничено!!!

2 сезон

iTunes

1 сезон

1

2 сезон

2 сезон

iTunes

1 сезон

RePack

30

Ultimate

ВАЖНО

ИГРА 18+

pack

RePack

MK11
pack

Забери бонус

RePack

jed

!!Акция!!

Alien_Rage

RePack

fifa19

RePack

Assassins Creed: Odyssey

RePack

NEED FOR SPEED™ PAYBACK

4 сезон

9 сезон

Бесстыжие 9 сезон

Все сериалы

все сериалы на PB.wtf

RePack

FAR CRY 5
  

Патрик Мелроуз / Patrick Melrose / Сезон: 1 / Серии: 1-5 из 5 (Эдвард Бергер) [2018, Драма, WEB-DLRip] [MVO] (TVShows) pb.wtf

Патрик Мелроуз через торрент pb.wtf

Размер: 5.1 GB | Добавлен: 1 год 8 мес. назад | Торрент скачан:28 раз
Скачать  

04-03-2019 22:21 Патрик Мелроуз Скачать торрент  

Патрик Мелроуз | Patrick Melrose
Год выпуска: 2018
Страна: Великобритания, США
Жанр: драма
Продолжительность: ~ 00:59:00

Перевод: Профессиональный (многоголосый закадровый) TVShows

Режиссёр: Эдвард Бергер

В ролях: Бенедикт Камбербэтч, Дженнифер Джейсон Ли, Хьюго Уивинг, Себастьян Мальц, Джессика Рэйн, Прасанна Пуванараджа, Пип Торренс, Анна Маделей, Индира Варма, Гари Бидл и др.
Описание: Патрик Мелроуз — плейбой, аристократ и алкоголик. Несмотря на деньги, жизнь Патрика сложно назвать легкой и безмятежной. Всё детство ему пришлось терпеть жестокое отношение отца, пока мать предпочитала не вмешиваться. Подросший Патрик находит в себе силы пробраться в высший свет, но вместе с этим начинается его путь к саморазрушению.


Качество: WEB-DLRip
Формат: AVI
Видео: XVID, 704x352, 23.976 fps, ~2000 kbps avg, ~0.33 bit/pixel
Аудио Rus: AC3, 48.0 KHz, 6 channels, 384 kbps
Субтитры: нет
General
Complete name : G:\Патрик Мелроуз (Сезон 1) TVShows\Patrick.Melrose.S01E01.WEB-DLRip.RGzsRutracker.Celta88.avi
Format : AVI
Format/Info : Audio Video Interleave
File size : 1.07 GiB
Duration : 1 h 3 min
Overall bit rate : 2 393 kb/s
Writing application : VirtualDubMod 1.5.10.3 | www.virtualdub-fr.org || (build 2550/release)
Writing library : VirtualDubMod build 2550/release

Video
ID : 0
Format : MPEG-4 Visual
Format profile : Advanced Simple@L5
Format settings, BVOP : 1
Format settings, QPel : No
Format settings, GMC : No warppoints
Format settings, Matrix : Custom
Codec ID : XVID
Codec ID/Hint : XviD
Duration : 1 h 3 min
Bit rate : 2 000 kb/s
Width : 704 pixels
Height : 352 pixels
Display aspect ratio : 2.000
Frame rate : 23.976 (24000/1001) FPS
Color space : YUV
Chroma subsampling : 4:2:0
Bit depth : 8 bits
Scan type : Progressive
Compression mode : Lossy
Bits/(Pixel*Frame) : 0.337
Stream size : 913 MiB (84%)
Writing library : XviD 73

Audio
ID : 1
Format : AC-3
Format/Info : Audio Coding 3
Mode extension : CM (complete main)
Format settings, Endianness : Big
Codec ID : 2000
Duration : 1 h 3 min
Bit rate mode : Constant
Bit rate : 384 kb/s
Channel(s) : 6 channels
Channel positions : Front: L C R, Side: L R, LFE
Sampling rate : 48.0 kHz
Frame rate : 31.250 FPS (1536 spf)
Bit depth : 16 bits
Compression mode : Lossy
Stream size : 175 MiB (16%)
Alignment : Split accross interleaves
Interleave, duration : 42 ms (1.00 video frame)
Interleave, preload duratio : 500 ms
скриншот  скриншот  скриншот  
pb.wtf



Скачать Патрик Мелроуз через торрент https://a.radikal.ru/a29/1805/d8/da87ba136702.png Скачать фильм Патрик Мелроуз через торрент бесплантно в хорошем качестве Описание: Патрик Мелроуз — плейбой, аристократ и алкоголик. Несмотря на деньги, жизнь Патрика сложно назвать легкой и безмятежной. Всё ... 5 10 1
Торрент: Зарегистрирован [2019-03-04 22:21] · скачан: 28 раз
Статус: √ проверено
Размер: 5.1 GB
Как cкачать? Как скачать Патрик Мелроуз через торрент | qTorrent

% Раздел Тема Автор DL S | L
Зарубежные сериалы [ 3.64 GB ] Патрик Мелроуз / Patrick Melrose / Сезон: 1 / Серии: 1-5 из 5 [2018 WEB-DLRip] MVO [LostFilm] bober100 Скачать
1 | 0
Зарубежные сериалы [ 19.78 GB ] Патрик Мелроуз / Patrick Melrose / Сезон: 1 / Серии: 1-5 из 5 [2018 WEB-DL 1080p] MVO [LostFilm] bober100 Скачать
1 | 0
Зарубежные сериалы [ 10.25 GB ] Патрик Мелроуз / Patrick Melrose / Сезон: 1 / Серии: 1-5 из 5 [2018 WEB-DL-HEVC 1080p ] MVO [Amedia] bober100 Скачать
1 | 0
Зарубежные сериалы [ 5.17 GB ] Патрик Мелроуз / Patrick Melrose / Сезон: 1 / Серии: 1-5 из 5 [2018 WEB-DL 720p] DVO [SunshineStudio] bober100 Скачать
1 | 0
Зарубежные сериалы [ 6.92 GB ] Патрик Мелроуз / Patrick Melrose / Сезон: 1 / Серии: 1-5 из 5 [2018 WEB-DL 720p] MVO [Jaskier] bober100 Скачать
2 | 0
Зарубежные сериалы [ 3.56 GB ] Патрик Мелроуз / Patrick Melrose / Сезон: 1 / Серии: 1-5 из 5 [2018 WEB-DLRip] MVO [Jaskier] bober100 Скачать
1 | 0

28-11-2019 20:33  

Отключить всю рекламу на сайте

    Дорогой пользователь! Огромная просьба, поблагодарите релизера, оцените раздачу и оставьте свои комментарий, если Вы скачали Патрик Мелроуз через торрент бесплатно! Внесите свою лепту в развитие PiratBit!
    Комментировать посты могут только пользователи прошедшие не сложную регистрацию
    Показать сообщения:    

    Патрик Мелроуз через торрент
    Скачать бесплатно Патрик Мелроуз
    Патрик Мелроуз скачать торрент
    Патрик Мелроуз смотреть онлайн
    Cкачать фильм Патрик Мелроуз бесплатно
    Патрик Мелроуз скачать торрент в хорошем качестве
    Патрик Мелроуз смотреть онлайн бесплатно в хорошем качестве


    Вы не можете начинать темы
    Вы не можете отвечать на сообщения
    Вы не можете редактировать свои сообщения
    Вы не можете удалять свои сообщения
    Вы не можете голосовать в опросах
    Вы не можете прикреплять файлы к сообщениям
    Вы можете скачивать файлы