Ссылка на приватное зеркало нашего сайта всего за 1$. Внимание количество ограничено!!!

2 сезон

iTunes

1 сезон

1

2 сезон

2 сезон

iTunes

1 сезон

RePack

30

Новинка

ВАЖНО

ИГРА 18+

pack

RePack

MK11
pack

Забери бонус

RePack

jed

!!Акция!!

Alien_Rage

RePack

fifa19

RePack

Assassins Creed: Odyssey

RePack

NEED FOR SPEED™ PAYBACK

4 сезон

9 сезон

Бесстыжие 9 сезон

Все сериалы

все сериалы на PB.wtf

RePack

FAR CRY 5
  

Патрик Мелроуз / Patrick Melrose / Сезон: 1 / Серии: 1-5 из 5 (Эдвард Бергер) [2018, драма, WEB-DL 1080p] MVO [LostFilm] pb.wtf

Патрик Мелроуз через торрент pb.wtf

Размер: 19.78 GB | Добавлен: 1 год 8 мес. назад | Торрент скачан:44 раза
Скачать  

05-03-2019 00:53 Патрик Мелроуз Скачать торрент  

Патрик Мелроуз | Patrick Melrose Год выпуска: 2018
Страна: Великобритания
Жанр: Драма
Продолжительность: ~01:00:00
Перевод: Профессиональный (многоголосый закадровый) | LostFilm
Субтитры: Русские (Full |FOCS|), английские (Full, SDH)

Режиссёр: Эдвард Бергер

В ролях:

Бенедикт Камбербэтч, Дженнифер Джейсон Ли, Джессика Рэйн, Хьюго Уивинг, Прасанна Пуванараджа, Пип Торренс, Анна Маделей, Индира Варма, Дейнтон Андерсон и др.

Описание:

Патрик Мелроуз — плейбой, аристократ и алкоголик. Несмотря на деньги, жизнь Патрика сложно назвать легкой и безмятежной. Все детство ему пришлось терпеть жестокое отношение отца, пока мать предпочитала не вмешиваться. Подросший Патрик находит в себе силы пробраться в высший свет, но вместе с этим начинается его путь к саморазрушению.




Качество: WEB-DL 1080p | чистый видеоряд (без заставки и логотипа)
Формат: MKV

Видео: AVC, 1920x1080 (16:9), 23.976 fps, ~ 8300 Kbps
Аудио №1: EAC3, 48,0 kHz, 6 ch, 640 kbps | LostFilm
Аудио №2: EAC3, 48,0 kHz, 6 ch, 640 kbps | Original
01. Плохая новость / Bad News
02. Не обращай внимания / Never Mind
03. Немного надежды / Some Hope
04. Молоко матери / Mother's Milk
05. Наконец / At Last
Релиз от
Источник: Patrick.Melrose.S01.1080p.WEB.H264-DEFLATE
Аудио №1 получено наложением выделенных голосов от «LostFilm» на центр оригинального EAC3 (отдельная благодарность за 5.1 - iTunes_TV).

Тех. данные видео пятой серии:
Видео: MPEG-4 AVC, 6106 Кбит/с, 1920x960
General
Unique ID : 229243170433128169070246444210395664686 (0xAC76A0EF190914DC93E547A5468DD12E)
Complete name : F:\Patrick.Melrose_s01_1080p_LostFilm\Patrick.Melrose_s01e01.WEB-DL.1080p.LostFilm.mkv
Format : Matroska
Format version : Version 4 / Version 2
File size : 4.28 GiB
Duration : 1 h 3 min
Overall bit rate mode : Variable
Overall bit rate : 9 610 kb/s
Encoded date : UTC 2018-05-16 14:38:25
Writing application : mkvmerge v18.0.0 ('Apricity') 64-bit
Writing library : libebml v1.3.5 + libmatroska v1.4.8

Video
ID : 1
Format : AVC
Format/Info : Advanced Video Codec
Format profile : High@L4
Format settings : CABAC / 4 Ref Frames
Format settings, CABAC : Yes
Format settings, ReFrames : 4 frames
Codec ID : V_MPEG4/ISO/AVC
Duration : 1 h 3 min
Bit rate mode : Variable
Bit rate : 8 328 kb/s
Maximum bit rate : 15.0 Mb/s
Width : 1 920 pixels
Height : 1 080 pixels
Display aspect ratio : 16:9
Frame rate mode : Constant
Frame rate : 23.976 (24000/1001) FPS
Color space : YUV
Chroma subsampling : 4:2:0
Bit depth : 8 bits
Scan type : Progressive
Bits/(Pixel*Frame) : 0.168
Stream size : 3.71 GiB (87%)
Language : English
Default : Yes
Forced : No
Color range : Limited
Color primaries : BT.709
Transfer characteristics : BT.709
Matrix coefficients : BT.709

Audio #1
ID : 2
Format : E-AC-3
Format/Info : Enhanced Audio Coding 3
Codec ID : A_EAC3
Duration : 1 h 3 min
Bit rate mode : Constant
Bit rate : 640 kb/s
Channel(s) : 6 channels
Channel positions : Front: L C R, Side: L R, LFE
Sampling rate : 48.0 kHz
Frame rate : 187.500 FPS (256 SPF)
Compression mode : Lossy
Stream size : 292 MiB (7%)
Title : DDP5.1 LostFilm
Language : Russian
Service kind : Complete Main
Default : Yes
Forced : No

Audio #2
ID : 3
Format : E-AC-3
Format/Info : Enhanced Audio Coding 3
Codec ID : A_EAC3
Duration : 1 h 3 min
Bit rate mode : Constant
Bit rate : 640 kb/s
Channel(s) : 6 channels
Channel positions : Front: L C R, Side: L R, LFE
Sampling rate : 48.0 kHz
Frame rate : 187.500 FPS (256 SPF)
Compression mode : Lossy
Stream size : 292 MiB (7%)
Title : DDP5.1 Original
Language : English
Service kind : Complete Main
Default : No
Forced : No

Text #1
ID : 4
Format : UTF-8
Codec ID : S_TEXT/UTF8
Codec ID/Info : UTF-8 Plain Text
Duration : 1 h 1 min
Bit rate : 111 b/s
Count of elements : 881
Stream size : 50.3 KiB (0%)
Title : FOCS
Language : Russian
Default : No
Forced : No

Text #2
ID : 5
Format : UTF-8
Codec ID : S_TEXT/UTF8
Codec ID/Info : UTF-8 Plain Text
Duration : 1 h 1 min
Bit rate : 65 b/s
Count of elements : 905
Stream size : 29.2 KiB (0%)
Language : English
Default : No
Forced : No

Text #3
ID : 6
Format : UTF-8
Codec ID : S_TEXT/UTF8
Codec ID/Info : UTF-8 Plain Text
Duration : 1 h 1 min
Bit rate : 75 b/s
Count of elements : 1070
Stream size : 34.5 KiB (0%)
Title : SDH
Language : English
Default : No
Forced : No
pb.wtf



Скачать Патрик Мелроуз через торрент http://funkyimg.com/i/2GkoZ.png Скачать фильм Патрик Мелроуз через торрент бесплантно в хорошем качестве Описание: Патрик Мелроуз — плейбой, аристократ и алкоголик. Несмотря на деньги, жизнь Патрика сложно назвать легкой и безмятежной. Все ... 10 10 3
Торрент: Зарегистрирован [2019-03-05 00:53] · скачан: 44 раз
Статус: √ проверено
Размер: 19.78 GB
Как cкачать? Как скачать Патрик Мелроуз через торрент | qTorrent

% Раздел Тема Автор DL S | L
Зарубежные сериалы [ 3.64 GB ] Патрик Мелроуз / Patrick Melrose / Сезон: 1 / Серии: 1-5 из 5 [2018 WEB-DLRip] MVO [LostFilm] bober100 Скачать
1 | 0
Зарубежные сериалы [ 5.1 GB ] Патрик Мелроуз / Patrick Melrose / Сезон: 1 / Серии: 1-5 из 5 [2018 WEB-DLRip] [MVO] killermax2013 Скачать
1 | 0
Зарубежные сериалы [ 10.25 GB ] Патрик Мелроуз / Patrick Melrose / Сезон: 1 / Серии: 1-5 из 5 [2018 WEB-DL-HEVC 1080p ] MVO [Amedia] bober100 Скачать
1 | 0
Зарубежные сериалы [ 5.17 GB ] Патрик Мелроуз / Patrick Melrose / Сезон: 1 / Серии: 1-5 из 5 [2018 WEB-DL 720p] DVO [SunshineStudio] bober100 Скачать
1 | 0
Зарубежные сериалы [ 6.92 GB ] Патрик Мелроуз / Patrick Melrose / Сезон: 1 / Серии: 1-5 из 5 [2018 WEB-DL 720p] MVO [Jaskier] bober100 Скачать
2 | 0
Зарубежные сериалы [ 3.56 GB ] Патрик Мелроуз / Patrick Melrose / Сезон: 1 / Серии: 1-5 из 5 [2018 WEB-DLRip] MVO [Jaskier] bober100 Скачать
1 | 0

28-11-2019 20:33  

Отключить всю рекламу на сайте

    Дорогой пользователь! Огромная просьба, поблагодарите релизера, оцените раздачу и оставьте свои комментарий, если Вы скачали Патрик Мелроуз через торрент бесплатно! Внесите свою лепту в развитие PiratBit!
    Комментировать посты могут только пользователи прошедшие не сложную регистрацию
    Показать сообщения:    

    Патрик Мелроуз через торрент
    Скачать бесплатно Патрик Мелроуз
    Патрик Мелроуз скачать торрент
    Патрик Мелроуз смотреть онлайн
    Cкачать фильм Патрик Мелроуз бесплатно
    Патрик Мелроуз скачать торрент в хорошем качестве
    Патрик Мелроуз смотреть онлайн бесплатно в хорошем качестве


    Вы не можете начинать темы
    Вы не можете отвечать на сообщения
    Вы не можете редактировать свои сообщения
    Вы не можете удалять свои сообщения
    Вы не можете голосовать в опросах
    Вы не можете прикреплять файлы к сообщениям
    Вы можете скачивать файлы