Ссылка на приватное зеркало всего за 1$. Внимание количество ограничено!!!

iTunes

1+1

iTunes

мы

WEB-DL

1

iTunes

Чернобыль

iTunes

Ральф против интернета

Лицензия

ПШазам

Лицензия

Оно 2

Лицензия

30
pack

Вам бонус

ВАЖНО

!!Акция!!

Alien_RageХит недели

RePack

Resident Evil 21

ИГРА 18+

pack

RePack

jed

!!Акция!!

Alien_Rage

RePack

fifa19

RePack

Assassins Creed: Odyssey

RePack

NEED FOR SPEED™ PAYBACK

3 сезон

9 сезон

Бесстыжие 9 сезон

Все сериалы

все сериалы на PB.wtf

RePack

FAR CRY 5
Ребята, катастрофически не хватает 1900р. для оплаты серверов за Октябрь (всвязи с блокировками трафик упал в 3 раза), 1-2р., выручайте.
  

Холодная война / Zimna wojna / Cold War (Павел Павликовский) [2018, Драма, мелодрама, музыка, BDRip] DUB [iTunes] pb.wtf

Холодная война через торрент pb.wtf

Размер: 1.46 GB | Добавлен: 9 мес. назад | Торрент скачан:119 раз
Скачать  

05-03-2019 01:06 Холодная война Скачать торрент  

Холодная война / Zimna wojna / Cold War Год выпуска: 2018
Страна: Польша, Великобритания, Франция
Жанр: Драма, мелодрама, музыка
Продолжительность: 01:28:00
Перевод: Дублированный | iTunes
Субтитры: русские (форс. вшитые)

Режиссер: Павел Павликовский

rating

В ролях:

Иоанна Кулиг, Томаш Кот, Борис Шиц, Агата Кулеша, Седрик Кан, Жанна Балибар, Адам Воронович, Адам Ференцы, Дражен Сивак, Славко Собин и др.

Описание:

Это история невозможной любви в невозможное время. Они знакомятся на руинах послевоенной Польши. Разное происхождение и несхожие темпераменты — кажется, что они совершенно несовместимы. И все же им никуда друг от друга не деться. На протяжении лет они расстаются и встречаются вновь и вновь — в Берлине, Югославии и Париже… На пути их любви встают политика, превратности судьбы и их собственные недостатки, но ничто не в силах разорвать связь двух сердец.

Качество: BDRip
Формат: AVI

Видео: Xvid 73, 704x528, ~1972 kbps, 24,000 fps
Аудио: русский, AC3, 5.1 ch, 48 kHz, 384 kbps | iTunes
скриншот  скриншот  скриншот  скриншот  

Общее
Полное имя : E:TorrentZimnaWojnaBDRip.avi
Формат : AVI
Формат/Информация : Audio Video Interleave
Профиль формата : OpenDML
Размер файла : 1,46 Гбайт
Продолжительность : 1 ч. 28 м.
Общий поток : 2367 Кбит/сек
Программа кодирования : XviD4PSP 6.0 / 54.27.101

Видео
Идентификатор : 0
Формат : MPEG-4 Visual
Профиль формата : Advanced Simple@L5
Настройки формата : BVOP2 / Custom Matrix
Параметр BVOP формата : 2
Параметр QPel формата : Нет
Параметр GMC формата : Без точки перехода
Параметр матрицы формата : Выборочная
Идентификатор кодека : XVID
Идентификатор кодека/Подсказка : XviD
Продолжительность : 1 ч. 28 м.
Битрейт : 1972 Кбит/сек
Ширина : 704 пикселя
Высота : 528 пикселей
Соотношение сторон : 4:3
Частота кадров : 24,000 кадра/сек
Цветовое пространство : YUV
Субдискретизация насыщенности : 4:2:0
Битовая глубина : 8 бит
Тип развёртки : Прогрессивная
Метод сжатия : С потерями
Бит/(Пиксели*Кадры) : 0.221
Размер потока : 1,21 Гбайт (83%)
Библиотека кодирования : XviD 73

Аудио
Идентификатор : 1
Формат : AC-3
Формат/Информация : Audio Coding 3
Идентификатор кодека : 2000
Продолжительность : 1 ч. 28 м.
Вид битрейта : Постоянный
Битрейт : 384 Кбит/сек
Каналы : 6 каналов
Расположение каналов : Front: L C R, Side: L R, LFE
Частота : 48,0 КГц
Частота кадров : 31,250 кадров/сек (1536 SPF)
Битовая глубина : 16 бит
Метод сжатия : С потерями
Размер потока : 242 Мбайт (16%)
Выравнивание : Соединение по промежуткам
Продолжительность промежутка : 32 мс. (0,77 видеокадр)

pb.wtf



Скачать Холодная война через торрент http://lostpix.com/thumbs/2019-03/05/xpkneiwyos6xmi0a9odbr69z4.png Скачать фильм Холодная война через торрент бесплантно в хорошем качестве Описание: Это история невозможной любви в невозможное время. Они знакомятся на руинах послевоенной Польши. Разное происхождение и несхожие ... 10 10 4
Торрент: Зарегистрирован [2019-03-05 01:06] · скачан: 119 раз
Статус: √ проверено
Размер: 1.46 GB
Как cкачать? Как скачать Холодная война через торрент | qTorrent

% Раздел Тема Автор DL S | L
Фильмы 2018 [DVDrip, WEB-DLRip, HDrip] (DUB, MVO) [ 1.42 GB ] Холодная война / Zimna wojna / Cold War [2018 музыка BDRip] - Twi7ter Скачать
1 | 0
Фильмы [HD 720p, 1080p] (Хороший звук DUB, MVO) [ 4.23 GB ] Холодная война / Zimna wojna / Cold War [2018 музыка BDRip 720p] bober100 Скачать
1 | 0
Фильмы [HD 720p, 1080p] (Хороший звук DUB, MVO) [ 7.66 GB ] Холодная война / Zimna wojna / Cold War [2018 музыка BDRip 1080p] bober100 Скачать
1 | 0

28-11-2019 20:33  

Отключить всю рекламу на сайте

    Дорогой пользователь! Огромная просьба, поблагодарите релизера, оцените раздачу и оставьте свои комментарий, если Вы скачали Холодная война через торрент бесплатно! Внесите свою лепту в развитие PiratBit!
    Комментировать посты могут только пользователи прошедшие не сложную регистрацию
    Показать сообщения:    

    Холодная война через торрент
    Скачать бесплатно Холодная война
    Холодная война скачать торрент
    Холодная война смотреть онлайн
    Cкачать фильм Холодная война бесплатно
    Холодная война скачать торрент в хорошем качестве
    Холодная война смотреть онлайн бесплатно в хорошем качестве


    Вы не можете начинать темы
    Вы не можете отвечать на сообщения
    Вы не можете редактировать свои сообщения
    Вы не можете удалять свои сообщения
    Вы не можете голосовать в опросах
    Вы не можете прикреплять файлы к сообщениям
    Вы можете скачивать файлы