новый адрес
Ссылка на приватное зеркало всего за 1$. Внимание количество ограничено!!!

iTunes

1+1

iTunes

мы

iTunes

1

iTunes

Чернобыль

iTunes

Ральф против интернета

Лицензия

ПШазам

Лицензия

Оно 2

Лицензия

30
pack

Вам бонус

ВАЖНО

!!Акция!!

Alien_RageХит недели

RePack

Resident Evil 21

ИГРА 18+

pack

RePack

jed

!!Акция!!

Alien_Rage

RePack

fifa19

RePack

Assassins Creed: Odyssey

RePack

NEED FOR SPEED™ PAYBACK

3 сезон

9 сезон

Бесстыжие 9 сезон

Все сериалы

все сериалы на PB.wtf

RePack

FAR CRY 5
Ребята, катастрофически не хватает 1900р. для оплаты серверов за Октябрь (всвязи с блокировками трафик упал в 3 раза), 1-2р., выручайте.
  

Дом, который построил Джек / The House That Jack Built (Ларс фон Триер) [2018, ужасы, триллер, драма, BDRip-AVC] DUB [iTunes] pb.wtf

Дом, который построил Джек через торрент pb.wtf

Раздают: 1 [ 0 KB/s ]
Размер: 2.25 GB | Добавлен: 9 мес. назад | Торрент скачан:374 раза
Скачать  

05-03-2019 01:14 Дом, который построил Джек Скачать торрент  

Дом, который построил Джек / The House That Jack Built
Год выпуска: 2018
Страна: Дания, Франция, Германия, Швеция
Жанр: ужасы, триллер, драма
Продолжительность: 02:32:34
Перевод: Дублированный | iTunes
Субтитры: отсутствуют

Режиссер: Ларс фон Триер

rating

В ролях:

Мэтт Диллон, Бруно Ганц, Ума Турман, Шиван Фэллон, Софи Гробёль, Райли Кио, Джереми Дэвис, Эдвард Спелирс, Дэвид Бэйли, Ю Джи-тхэ

Описание:

История серийного убийцы по имени Джек разворачивается в Америке 70-х. За 12 лет блестящей «карьеры» Джеку встретятся назойливая попутчица, наивная подружка и другие очаровательные в своей глупости жертвы. Пять невероятных, до жути изобретательных и порой до смеха абсурдных убийств, к каждому из которых Джек относится как к настоящему произведению искусства.

Качество: BDRip-AVC
Формат: MKV

Видео: 1024x428 (2.40:1), 24,000 fps, x264 ~1 726 kbps avg, 0.164 bit/pixel
Аудио: 48 kHz, AC3 Dolby Digital, 3/2 (L,C,R,l,r) + LFE ch, ~384.00 kbps avg | RUS (iTunes)
скриншот  скриншот  скриншот  скриншот  скриншот  

Общее
Уникальный идентификатор : 212840343195390744636105392660467808528 (0xA01F8F1CCF87F3AC027872C7948DF910)
Полное имя : F:OlLanDGroupThe.House.That.Jack.Built.2018.BDRip(AVC).OlLanDGroup.mkv
Формат : Matroska
Версия формата : Version 4 / Version 2
Размер файла : 2,25 Гбайт
Продолжительность : 2 ч. 32 м.
Общий поток : 2109 Кбит/сек
Название фильма : The.House.That.Jack.Built.2018 #TorpedoUK#
Дата кодирования : UTC 2019-03-05 00:49:33
Программа кодирования : mkvmerge v29.0.0 ('Like It Or Not') 64-bit
Библиотека кодирования : libebml v1.3.6 + libmatroska v1.4.9

Видео
Идентификатор : 1
Формат : AVC
Формат/Информация : Advanced Video Codec
Профиль формата : High@L4.1
Параметр CABAC формата : Да
Параметр ReFrames формата : 10 кадров
Идентификатор кодека : V_MPEG4/ISO/AVC
Продолжительность : 2 ч. 32 м.
Битрейт : 1726 Кбит/сек
Ширина : 1024 пикселя
Высота : 428 пикселей
Соотношение сторон : 2,40:1
Режим частоты кадров : Постоянный
Частота кадров : 24,000 кадра/сек
Цветовое пространство : YUV
Субдискретизация насыщенности : 4:2:0
Битовая глубина : 8 бит
Тип развёртки : Прогрессивная
Бит/(Пиксели*Кадры) : 0.164
Размер потока : 1,84 Гбайт (82%)
Библиотека кодирования : x264 core 146 r2538 121396c
Настройки программы : cabac=1 / ref=10 / deblock=1:-3:-3 / analyse=0x3:0x113 / me=umh / subme=11 / psy=1 / psy_rd=1.00:0.03 / mixed_ref=1 / me_range=48 / chroma_me=1 / trellis=2 / 8x8dct=1 / cqm=0 / deadzone=21,11 / fast_pskip=1 / chroma_qp_offset=-3 / threads=6 / lookahead_threads=1 / sliced_threads=0 / nr=0 / decimate=1 / interlaced=0 / bluray_compat=0 / constrained_intra=0 / bframes=11 / b_pyramid=2 / b_adapt=2 / b_bias=0 / direct=3 / weightb=1 / open_gop=0 / weightp=2 / keyint=240 / keyint_min=24 / scenecut=40 / intra_refresh=0 / rc_lookahead=40 / rc=2pass / mbtree=0 / bitrate=1726 / ratetol=1.0 / qcomp=0.60 / qpmin=0 / qpmax=69 / qpstep=4 / cplxblur=20.0 / qblur=0.5 / vbv_maxrate=50000 / vbv_bufsize=62500 / nal_hrd=none / filler=0 / ip_ratio=1.40 / pb_ratio=1.30 / aq=1:1.00
Язык : English
Default : Да
Forced : Нет

Аудио
Идентификатор : 2
Формат : AC-3
Формат/Информация : Audio Coding 3
Расширение режима : CM (complete main)
Параметр Endianness формата : Big
Идентификатор кодека : A_AC3
Продолжительность : 2 ч. 32 м.
Вид битрейта : Постоянный
Битрейт : 384 Кбит/сек
Каналы : 6 каналов
Расположение каналов : Front: L C R, Side: L R, LFE
Частота : 48,0 КГц
Частота кадров : 31,250 кадров/сек (1536 spf)
Битовая глубина : 16 бит
Метод сжатия : С потерями
Размер потока : 419 Мбайт (18%)
Заголовок : DUB [iTunes]
Язык : Russian
Default : Да
Forced : Нет

Меню
00:00:00.000 : :Capítulo 01
00:08:41.375 : :Capítulo 02
00:15:11.500 : :Capítulo 03
00:29:16.500 : :Capítulo 04
00:42:38.000 : :Capítulo 05
00:49:34.083 : :Capítulo 06
00:57:58.417 : :Capítulo 07
01:17:27.292 : :Capítulo 08
01:41:17.542 : :Capítulo 09
01:51:48.208 : :Capítulo 10
02:13:45.500 : :Capítulo 11
02:28:28.208 : :Capítulo 12

pb.wtf



Скачать Дом, который построил Джек через торрент https://i110.fastpic.ru/big/2019/0305/bd/a7cce9e592c02576363df1d2e0acb3bd.jpg Скачать фильм Дом, который построил Джек через торрент бесплантно в хорошем качестве Описание: История серийного убийцы по имени Джек разворачивается в Америке 70-х. За 12 лет блестящей «карьеры» Джеку встретятся назойливая ... 9.4 10 8
Торрент: Зарегистрирован [2019-03-05 01:14] · скачан: 374 раз
Статус: √ проверено
Размер: 2.25 GB
Как cкачать? Как скачать Дом, который построил Джек через торрент | qTorrent

% Раздел Тема Автор DL S | L
Фильмы 2018 [DVDrip, WEB-DLRip, HDrip] (DUB, MVO) [ 1.46 GB ] Дом который построил Джек / The House That Jack Built [2018 BDRip] bober100 Скачать
6 | 0
Фильмы (Blu-ray, BD-Remux, HDDVD) [ 34.72 GB ] Дом который построил Джек / The House That Jack Built [2018 BDRemux 1080p] + AVO [М. Яроцкий] sheker187 Скачать
1 | 0
Фильмы [HD 720p, 1080p] (Хороший звук DUB, MVO) [ 5.88 GB ] Дом который построил Джек / The House That Jack Built [2018 BDRip 720p] bober100 Скачать
1 | 0
Фильмы [HD 720p, 1080p] (Хороший звук DUB, MVO) [ 11.73 GB ] Дом который построил Джек / The House That Jack Built [2018 BDRip 1080p] bober100 Скачать
3 | 1
Фильмы 2018 [DVDrip, WEB-DLRip, HDrip] (DUB, MVO) [ 2.12 GB ] Дом который построил Джек / The House That Jack Built [2018 BDRip] bober100 Скачать
3 | 0
Фильмы (Blu-ray, BD-Remux, HDDVD) [ 30.13 GB ] Дом который построил Джек / The House That Jack Built [2018 BD Remux 1080p] bober100 Скачать
1 | 0
Фильмы (WEB-DL 720p, 1080p) [ 5.25 GB ] Дом который построил Джек / The House That Jack Built [2018 WEB-DL 1080p] bober100 Скачать
2 | 0
Отключить всю рекламу на сайте

09-03-2019 18:29 Дом, который построил Джек Скачать торрент  

Хрень!!! Смотреть не советую!!!pb.wtf



    Дорогой пользователь! Огромная просьба, поблагодарите релизера, оцените раздачу и оставьте свои комментарий, если Вы скачали Дом, который построил Джек через торрент бесплатно! Внесите свою лепту в развитие PiratBit!
    Комментировать посты могут только пользователи прошедшие не сложную регистрацию
    Показать сообщения:    

    Дом, который построил Джек через торрент
    Скачать бесплатно Дом, который построил Джек
    Дом, который построил Джек скачать торрент
    Дом, который построил Джек смотреть онлайн
    Cкачать фильм Дом, который построил Джек бесплатно
    Дом, который построил Джек скачать торрент в хорошем качестве
    Дом, который построил Джек смотреть онлайн бесплатно в хорошем качестве


    Вы не можете начинать темы
    Вы не можете отвечать на сообщения
    Вы не можете редактировать свои сообщения
    Вы не можете удалять свои сообщения
    Вы не можете голосовать в опросах
    Вы не можете прикреплять файлы к сообщениям
    Вы можете скачивать файлы